<?xml version="1.0" standalone="no"?>
<!DOCTYPE svg PUBLIC "-//W3C//DTD SVG 1.1//EN" "http://www.w3.org/Graphics/SVG/1.1/DTD/svg11.dtd" >
<svg xmlns="http://www.w3.org/2000/svg" xmlns:xlink="http://www.w3.org/1999/xlink" version="1.1">
<metadata>
Created by FontForge 20170731 at Wed Nov  9 14:59:54 2016
 By Aleksey,,,
Copyright 2011-2016 The Varela Round Project Authors (https://github.com/alefalefalef/Varela-Round-Hebrew/), with Reserved Font Names 'Varela' and `Varela Round'.
</metadata>
<defs>
<font id="VarelaRound-Regular" horiz-adv-x="0" >
  <font-face 
    font-family="Varela Round"
    font-weight="400"
    font-stretch="normal"
    units-per-em="1000"
    panose-1="0 0 5 0 0 0 0 0 0 0"
    ascent="800"
    descent="-200"
    x-height="510"
    cap-height="703"
    bbox="-385 -286 1313 1025"
    underline-thickness="50"
    underline-position="-150"
    unicode-range="U+000D-FB02"
  />
<missing-glyph horiz-adv-x="514" 
d="M35 15q-15 15 -15 37v593q0 22 15 37.5t37 15.5h369q22 0 37.5 -15.5t15.5 -37.5v-593q0 -22 -15.5 -37t-37.5 -15h-369q-22 0 -37 15zM257 397l156 251h-313zM70 96l157 253l-157 253v-506zM444 96v506l-158 -253zM100 50h313l-156 252z" />
    <glyph glyph-name="fi" unicode="fi" horiz-adv-x="637" 
d="M130 8q-13 13 -13 32v392h-59q-16 0 -27.5 11.5t-11.5 27.5q0 17 11.5 28t27.5 11h59v58q0 60 21.5 98.5t56 56t72.5 17.5q47 0 87 -20q10 -5 16.5 -14.5t6.5 -20.5q0 -15 -11 -26.5t-26 -11.5q-11 0 -23 3q-24 3 -27 3q-41 0 -61.5 -19t-20.5 -69v-55h307
q19 -2 31 -14.5t12 -31.5v-424q0 -19 -13.5 -32t-32.5 -13t-32 13t-13 32v392h-259v-392q0 -19 -13.5 -32t-32.5 -13t-32 13zM474 629q-15 15 -15 36v4q0 21 15 36t36 15h6q21 0 36 -15t15 -36v-4q0 -21 -15 -36t-36 -15h-6q-21 0 -36 15z" />
    <glyph glyph-name="fl" unicode="fl" horiz-adv-x="636" 
d="M130 8q-13 13 -13 32v392h-59q-16 0 -27.5 11.5t-11.5 27.5q0 17 11.5 28t27.5 11h59v58q0 60 21.5 98.5t56 56t72.5 17.5q47 0 87 -20q10 -5 16.5 -14.5t6.5 -20.5q0 -15 -11 -26.5t-26 -11.5q-11 0 -23 3q-24 3 -27 3q-41 0 -61.5 -19t-20.5 -69v-55h125q17 0 28 -11
t11 -28q0 -16 -11 -27.5t-28 -11.5h-125v-392q0 -19 -13.5 -32t-32.5 -13t-32 13zM479 8q-13 13 -13 32v649q0 19 13 32.5t32 13.5q20 0 33 -13t13 -33v-649q0 -19 -13.5 -32t-32.5 -13t-32 13z" />
    <glyph glyph-name="f_f" unicode="ff" horiz-adv-x="774" 
d="M130 8q-13 13 -13 32v392h-59q-16 0 -27.5 11.5t-11.5 27.5q0 17 11.5 28t27.5 11h59v58q0 60 21.5 98.5t56 56t72.5 17.5q47 0 87 -20q10 -5 16.5 -14.5t6.5 -20.5q0 -15 -11 -26.5t-26 -11.5q-11 0 -23 3q-24 3 -27 3q-41 0 -61.5 -19t-20.5 -69v-55h303v58
q0 60 21.5 98.5t56 56t72.5 17.5q47 0 87 -20q10 -5 16.5 -14.5t6.5 -20.5q0 -15 -11 -26.5t-26 -11.5q-11 0 -23 3q-24 3 -27 3q-41 0 -61.5 -19t-20.5 -69v-55h125q17 0 28 -11t11 -28q0 -16 -11 -27.5t-28 -11.5h-125v-392q0 -19 -13.5 -32t-32.5 -13t-32 13t-13 32v392
h-303v-392q0 -19 -13.5 -32t-32.5 -13t-32 13z" />
    <glyph glyph-name="f_f_i" unicode="ffi" horiz-adv-x="1031" 
d="M130 8q-13 13 -13 32v392h-59q-16 0 -27.5 11.5t-11.5 27.5q0 17 11.5 28t27.5 11h59v58q0 60 21.5 98.5t56 56t72.5 17.5q47 0 87 -20q10 -5 16.5 -14.5t6.5 -20.5q0 -15 -11 -26.5t-26 -11.5q-11 0 -23 3q-24 3 -27 3q-41 0 -61.5 -19t-20.5 -69v-55h303v58
q0 60 21.5 98.5t56 56t72.5 17.5q47 0 87 -20q10 -5 16.5 -14.5t6.5 -20.5q0 -15 -11 -26.5t-26 -11.5q-11 0 -23 3q-24 3 -27 3q-41 0 -61.5 -19t-20.5 -69v-55h304q20 0 33 -13t13 -33v-424q0 -19 -13.5 -32t-32.5 -13t-32 13t-13 32v392h-259v-392q0 -19 -13.5 -32
t-32.5 -13t-32 13t-13 32v392h-303v-392q0 -19 -13.5 -32t-32.5 -13t-32 13zM868 629q-15 15 -15 36v4q0 21 15 36t36 15h6q21 0 36 -15t15 -36v-4q0 -21 -15 -36t-36 -15h-6q-21 0 -36 15z" />
    <glyph glyph-name="f_f_l" unicode="ffl" horiz-adv-x="1030" 
d="M130 8q-13 13 -13 32v392h-59q-16 0 -27.5 11.5t-11.5 27.5q0 17 11.5 28t27.5 11h59v58q0 60 21.5 98.5t56 56t72.5 17.5q47 0 87 -20q10 -5 16.5 -14.5t6.5 -20.5q0 -15 -11 -26.5t-26 -11.5q-11 0 -23 3q-24 3 -27 3q-41 0 -61.5 -19t-20.5 -69v-55h303v58
q0 60 21.5 98.5t56 56t72.5 17.5q47 0 87 -20q10 -5 16.5 -14.5t6.5 -20.5q0 -15 -11 -26.5t-26 -11.5q-11 0 -23 3q-24 3 -27 3q-41 0 -61.5 -19t-20.5 -69v-55h125q17 0 28 -11t11 -28q0 -16 -11 -27.5t-28 -11.5h-125v-392q0 -19 -13.5 -32t-32.5 -13t-32 13t-13 32v392
h-303v-392q0 -19 -13.5 -32t-32.5 -13t-32 13zM873 8q-13 13 -13 32v649q0 19 13 32.5t32 13.5q20 0 33 -13t13 -33v-649q0 -19 -13.5 -32t-32.5 -13t-32 13z" />
    <glyph glyph-name="f_j" unicode="fj" horiz-adv-x="637" 
d="M364 -231q-12 4 -19 13.5t-7 22.5q0 15 11 26.5t27 11.5q6 0 15 -1.5t15 -1.5q31 0 46 11t15 48v533h-259v-392q0 -19 -13.5 -32t-32.5 -13t-32 13t-13 32v392h-59q-16 0 -27.5 11.5t-11.5 27.5q0 17 11.5 28t27.5 11h59v58q0 60 21.5 98.5t56 56t72.5 17.5q47 0 87 -20
q10 -5 16.5 -14.5t6.5 -20.5q0 -15 -11 -26.5t-26 -11.5q-11 0 -23 3q-24 3 -27 3q-41 0 -61.5 -19t-20.5 -69v-55h307q19 -2 31 -14.5t12 -31.5v-567q0 -62 -31.5 -99.5t-99.5 -37.5q-36 0 -63 9zM474 629q-15 15 -15 36v4q0 21 15 36t36 15h6q21 0 36 -15t15 -36v-4
q0 -21 -15 -36t-36 -15h-6q-21 0 -36 15z" />
    <glyph glyph-name=".notdef" horiz-adv-x="514" 
d="M35 15q-15 15 -15 37v593q0 22 15 37.5t37 15.5h369q22 0 37.5 -15.5t15.5 -37.5v-593q0 -22 -15.5 -37t-37.5 -15h-369q-22 0 -37 15zM257 397l156 251h-313zM70 96l157 253l-157 253v-506zM444 96v506l-158 -253zM100 50h313l-156 252z" />
    <glyph glyph-name=".null" 
 />
    <glyph glyph-name="nonmarkingreturn" unicode="&#xd;" horiz-adv-x="260" 
 />
    <glyph glyph-name="NULL" 
 />
    <glyph glyph-name="NULL" 
 />
    <glyph glyph-name="space" unicode=" " horiz-adv-x="260" 
 />
    <glyph glyph-name="exclam" unicode="!" horiz-adv-x="281" 
d="M117 201q-9 8 -10 21l-18 330v99q0 22 15 37t37 15t36.5 -15t14.5 -37v-99l-18 -330q-1 -13 -9.5 -21t-23.5 -8t-24 8zM99.5 13.5q-17.5 17.5 -17.5 42.5q0 24 17.5 41.5t41.5 17.5q25 0 42.5 -17.5t17.5 -41.5q0 -25 -17.5 -42.5t-42.5 -17.5q-24 0 -41.5 17.5z" />
    <glyph glyph-name="quotedbl" unicode="&#x22;" horiz-adv-x="411" 
d="M92 499q-8 7 -10 18q-8 41 -15 91.5t-7 88.5q0 21 15 35.5t36 14.5t36 -14.5t15 -35.5q0 -38 -7 -88.5t-15 -91.5q-2 -11 -10 -18t-19 -7t-19 7zM281 499q-8 7 -10 18q-25 122 -22 180q1 21 16 35.5t35 14.5q21 0 36 -14.5t15 -35.5q0 -38 -7 -88.5t-15 -91.5
q-2 -11 -10 -18t-19 -7t-19 7z" />
    <glyph glyph-name="numbersign" unicode="#" horiz-adv-x="612" 
d="M134.5 5q-10.5 10 -10.5 25q0 4 24 152h-77q-14 0 -24.5 10.5t-10.5 24.5t10.5 24.5t24.5 10.5h88l24 152h-77q-14 0 -24.5 10.5t-10.5 24.5t10.5 24.5t24.5 10.5h88l25 158q2 12 11.5 20t23.5 8q16 0 25.5 -10t9.5 -25q0 -7 -24 -151h127l25 158q2 12 11.5 20t23.5 8
q16 0 25.5 -10t9.5 -25q0 -7 -24 -151h77q14 0 24.5 -10.5t10.5 -24.5t-10.5 -24.5t-24.5 -10.5h-88l-24 -152h77q14 0 24.5 -10.5t10.5 -24.5t-10.5 -24.5t-24.5 -10.5h-88l-25 -158q-2 -12 -12 -20.5t-23 -8.5q-14 0 -24.5 10t-10.5 25q0 4 24 152h-127l-25 -158
q-2 -12 -12 -20.5t-23 -8.5q-14 0 -24.5 10zM230 252h127l24 152h-127z" />
    <glyph glyph-name="dollar" unicode="$" horiz-adv-x="616" 
d="M544.5 89q-28.5 -43 -81 -68.5t-121.5 -29.5v-71q0 -13 -8.5 -21.5t-22.5 -8.5q-13 0 -21.5 8t-8.5 22v71q-108 7 -202 47q-12 5 -20 16.5t-8 24.5q0 17 11.5 29.5t29.5 12.5q10 0 19 -4q81 -36 170 -40v230q-68 18 -114.5 39t-77.5 59.5t-31 97.5q0 52 25.5 96t76 73
t121.5 35v70q0 13 8.5 22t21.5 9t22 -9t9 -22v-69q98 -4 174 -33q28 -10 28 -40q0 -16 -11 -29t-29 -13q-6 0 -16 4q-68 24 -146 27v-238q72 -17 119.5 -37t79.5 -59.5t32 -104.5q0 -53 -28.5 -96zM182.5 442q33.5 -24 98.5 -41v220q-60 -8 -96 -36.5t-36 -74.5
q0 -44 33.5 -68zM483 191q0 39 -35.5 60.5t-105.5 40.5v-215q141 10 141 114z" />
    <glyph glyph-name="percent" unicode="%" horiz-adv-x="814" 
d="M85 407.5q-42 50.5 -42 128.5t42 128.5t119 50.5t119 -50.5t42 -128.5t-42 -128.5t-119 -50.5t-119 50.5zM181 -0.5q-10 9.5 -10 23.5q0 9 5 17l407 651q10 16 28 16q15 0 24.5 -8t9.5 -22q0 -11 -7 -22l-404 -647q-5 -8 -13 -13t-17 -5q-13 0 -23 9.5zM271 454
q24 32 24 82t-24 82t-67 32t-67 -32t-24 -82t24 -82t67 -32t67 32zM491 32.5q-42 50.5 -42 128.5t42 128.5t119 50.5t119 -50.5t42 -128.5t-42 -128.5t-119 -50.5t-119 50.5zM677 79q24 32 24 82t-24 82t-67 32t-67 -32t-24 -82t24 -82t67 -32t67 32z" />
    <glyph glyph-name="ampersand" unicode="&#x26;" horiz-adv-x="732" 
d="M177 19.5q-55 29.5 -80.5 76.5t-25.5 100q0 68 35.5 116.5t77.5 75.5q-30 36 -45.5 69t-15.5 76q0 48 22.5 88t65 63.5t99.5 23.5q67 0 133 -44q7 -4 12.5 -12.5t5.5 -17.5q0 -14 -10 -24.5t-25 -10.5q-8 0 -18 5q-48 26 -94 26q-50 0 -78.5 -27.5t-28.5 -64.5
q0 -29 9.5 -51t28.5 -43t62 -61l209 -197q14 20 33 61q5 11 15.5 18t23.5 7q18 0 30 -11.5t12 -29.5q0 -10 -5 -20q-20 -43 -48 -82l67 -64q8 -7 12 -14t4 -18q0 -17 -11 -29t-30 -12q-18 0 -31 12l-67 64q-43 -36 -95 -57t-110 -21q-84 0 -139 29.5zM462 123l-223 209
q-34 -22 -58 -57t-24 -82q0 -55 43.5 -90.5t107.5 -35.5q85 0 154 56z" />
    <glyph glyph-name="quotesingle" unicode="'" horiz-adv-x="222" 
d="M92 499q-8 7 -10 18q-8 41 -15 91.5t-7 88.5q0 21 15 35.5t36 14.5t36 -14.5t15 -35.5q0 -38 -7 -88.5t-15 -91.5q-2 -11 -10 -18t-19 -7t-19 7z" />
    <glyph glyph-name="parenleft" unicode="(" horiz-adv-x="312" 
d="M206.5 -150q-6.5 4 -14.5 14q-70 83 -105.5 198.5t-35.5 244.5t35.5 244.5t105.5 198.5q8 10 14.5 14t18.5 4q16 0 28 -11t12 -28q0 -11 -6 -22q-55 -91 -86 -192.5t-31 -207.5t31 -207.5t86 -192.5q6 -11 6 -22q0 -17 -12 -28t-28 -11q-12 0 -18.5 4z" />
    <glyph glyph-name="parenright" unicode=")" horiz-adv-x="312" 
d="M60 -143q-12 11 -12 28q0 11 6 22q55 91 86 192.5t31 207.5t-31 207.5t-86 192.5q-6 11 -6 22q0 17 12 28t28 11q12 0 18.5 -4t14.5 -14q70 -83 105.5 -198.5t35.5 -244.5t-35.5 -244.5t-105.5 -198.5q-8 -10 -14.5 -14t-18.5 -4q-16 0 -28 11z" />
    <glyph glyph-name="asterisk" unicode="*" horiz-adv-x="417" 
d="M187 392.5q-9 8.5 -9 20.5q0 4 16 106q-80 -65 -84 -67q-6 -3 -13 -3q-17 0 -27 15q-4 7 -4 16q0 17 14 24l100 39l-100 39q-14 8 -14 25q0 9 4 16q10 15 26 15q7 0 14 -4q4 -2 84 -67q-16 102 -16 106q0 12 9 20.5t21 8.5t21 -8.5t9 -20.5q0 -4 -16 -106q80 65 84 67
q5 4 14 4q16 0 26 -15q4 -8 4 -15q0 -17 -14 -26l-100 -39l100 -39q14 -8 14 -25q0 -7 -4 -15q-10 -15 -27 -15q-7 0 -13 3q-4 2 -84 67q16 -102 16 -106q0 -12 -9 -20.5t-21 -8.5t-21 8.5z" />
    <glyph glyph-name="plus" unicode="+" horiz-adv-x="562" 
d="M253.5 115.5q-11.5 11.5 -11.5 27.5v164h-164q-16 0 -27 11t-11 27q0 17 11 28t27 11h164v164q0 17 11.5 28t27.5 11q17 0 28 -11t11 -28v-164h163q17 0 28 -11t11 -28q0 -16 -11 -27t-28 -11h-163v-164q0 -16 -11 -27.5t-28 -11.5q-16 0 -27.5 11.5z" />
    <glyph glyph-name="comma" unicode="," horiz-adv-x="260" 
d="M71.5 -142q-8.5 9 -8.5 21q0 16 15 25q25 15 38 35t13 58h-4q-23 0 -39.5 16.5t-16.5 39.5v6q0 23 16.5 39.5t39.5 16.5h10q23 0 39.5 -16.5t16.5 -39.5v-59q0 -96 -82 -146q-8 -5 -17 -5q-12 0 -20.5 9z" />
    <glyph glyph-name="hyphen" unicode="-" horiz-adv-x="408" 
d="M80.5 251.5q-11.5 11.5 -11.5 28.5t11.5 29t28.5 12h189q17 0 29 -12t12 -29t-12 -28.5t-29 -11.5h-189q-17 0 -28.5 11.5z" />
    <glyph glyph-name="period" unicode="." horiz-adv-x="260" 
d="M85.5 13.5q-16.5 16.5 -16.5 39.5v6q0 23 16.5 39.5t39.5 16.5h10q23 0 39.5 -16.5t16.5 -39.5v-6q0 -23 -16.5 -39.5t-39.5 -16.5h-10q-23 0 -39.5 16.5z" />
    <glyph glyph-name="slash" unicode="/" horiz-adv-x="443" 
d="M59.5 -83q-11.5 12 -11.5 29q0 6 3 15l265 775q4 12 14 20t25 8q18 0 29.5 -12t11.5 -29q0 -6 -3 -15l-265 -775q-4 -12 -14 -20t-25 -8q-18 0 -29.5 12z" />
    <glyph glyph-name="zero" unicode="0" horiz-adv-x="628" 
d="M112.5 87q-69.5 97 -69.5 262t69.5 262t201.5 97q131 0 201 -97t70 -262t-70 -262t-201 -97q-132 0 -201.5 97zM447.5 147q46.5 73 46.5 202q0 128 -46.5 201t-133.5 73t-133.5 -73t-46.5 -201q0 -129 46.5 -202t133.5 -73t133.5 73z" />
    <glyph glyph-name="one" unicode="1" horiz-adv-x="628" 
d="M147 12q-12 12 -12 30t12 30.5t30 12.5h119v507l-102 -50q-14 -6 -23 -6q-19 0 -31 12t-12 31q0 28 26 41l136 71q14 7 28 7h21q20 0 34 -14t14 -34v-565h99q18 0 30.5 -12.5t12.5 -30.5t-12.5 -30t-30.5 -12h-309q-18 0 -30 12z" />
    <glyph glyph-name="two" unicode="2" horiz-adv-x="628" 
d="M80 14.5q-15 14.5 -15 37.5q0 52 30.5 96t74 77.5t114.5 79.5q61 39 97 66t60 59t24 68q0 57 -37.5 90.5t-120.5 33.5q-90 0 -171 -36q-10 -5 -19 -5q-16 0 -27 11t-11 28q0 25 22 37q102 51 222 51q64 0 116.5 -25.5t83 -71.5t30.5 -106q0 -59 -34.5 -109.5t-82.5 -88.5
t-125 -88q-70 -47 -105.5 -75.5t-49.5 -58.5h348q18 0 30.5 -12.5t12.5 -30.5t-12.5 -30t-30.5 -12h-386q-23 0 -38 14.5z" />
    <glyph glyph-name="three" unicode="3" horiz-adv-x="628" 
d="M85 30q-12 5 -19 14.5t-7 23.5q0 17 11.5 29.5t28.5 12.5q9 0 19 -4q72 -29 159 -29q78 0 131.5 25.5t53.5 85.5q0 126 -221 126h-16q-17 0 -29.5 12.5t-12.5 29.5t12.5 29.5t29.5 12.5h6q100 0 153 30.5t53 90.5q0 48 -40 76t-118 28q-84 0 -155 -33q-10 -4 -18 -4
q-15 0 -26 10.5t-11 26.5q0 23 20 34q96 51 198 51q115 0 178 -47t63 -133q0 -69 -34.5 -108.5t-86.5 -58.5q57 -13 101.5 -54.5t44.5 -123.5q0 -92 -72.5 -142.5t-186.5 -50.5q-111 0 -209 40z" />
    <glyph glyph-name="four" unicode="4" horiz-adv-x="628" 
d="M401 8q-13 13 -13 32v136h-305q-24 0 -41 16.5t-17 40.5v9q0 21 12 36l314 401q8 11 21.5 17.5t28.5 6.5h20q26 0 42 -16.5t16 -41.5v-388h76q17 0 29 -12t12 -29t-12 -28.5t-29 -11.5h-76v-136q0 -19 -13.5 -32t-32.5 -13t-32 13zM122 257h266v343z" />
    <glyph glyph-name="five" unicode="5" horiz-adv-x="628" 
d="M84 48q-10 7 -15 14.5t-5 21.5q0 18 11 30.5t29 12.5q11 0 21 -5q79 -42 160 -42q95 0 145 32t50 109q0 62 -41.5 98t-113.5 36q-83 0 -154 -43q-2 -1 -11.5 -6.5t-23.5 -5.5q-28 0 -47 16t-19 42q0 12 2 24l45 266q3 23 17.5 36.5t35.5 13.5h321q18 0 30.5 -12.5
t12.5 -30.5t-12.5 -30t-30.5 -12h-290l-32 -212q76 41 169 41q74 0 126.5 -29t79.5 -80t27 -117q0 -101 -69 -163.5t-205 -62.5q-122 0 -213 58z" />
    <glyph glyph-name="six" unicode="6" horiz-adv-x="628" 
d="M59 348q0 87 28.5 169t93.5 136.5t168 54.5q56 0 98 -12t79 -31q9 -5 15 -15t6 -21q0 -16 -11.5 -28.5t-29.5 -12.5q-9 0 -17 3q-62 29 -133 29q-113 0 -159 -79t-51 -177q30 38 80 63t125 25q68 0 119.5 -29t80.5 -82t29 -124q0 -63 -30 -115t-86 -82t-131 -30
q-274 0 -274 358zM415.5 94.5q35.5 19.5 54.5 52.5t19 72q0 68 -38 109t-111 41q-130 0 -189 -110q27 -184 183 -184q46 0 81.5 19.5z" />
    <glyph glyph-name="seven" unicode="7" horiz-adv-x="628" 
d="M198 8q-13 13 -13 32q0 12 6 24l275 547h-363q-18 0 -30.5 12.5t-12.5 30.5t12.5 31t30.5 13h408q24 0 40 -15t16 -38q0 -22 -10 -44l-284 -581q-6 -11 -18 -18t-25 -7q-19 0 -32 13z" />
    <glyph glyph-name="eight" unicode="8" horiz-adv-x="628" 
d="M160.5 19q-59.5 29 -86.5 73t-27 93q0 139 149 189q-51 17 -83.5 55.5t-32.5 96.5q0 43 23.5 85t76 69.5t134.5 27.5t134.5 -27.5t76 -69.5t23.5 -85q0 -58 -32.5 -96.5t-83.5 -55.5q149 -50 149 -189q0 -49 -27 -93t-86.5 -73t-153.5 -29t-153.5 29zM422.5 445
q34.5 33 34.5 75q0 47 -36.5 77.5t-106.5 30.5t-106.5 -30.5t-36.5 -77.5q0 -42 34.5 -75t108.5 -33t108.5 33zM415.5 90.5q39.5 20.5 57 49.5t17.5 55q0 64 -51 99.5t-125 35.5t-125 -35.5t-51 -99.5q0 -26 17.5 -55t57 -49.5t101.5 -20.5t101.5 20.5z" />
    <glyph glyph-name="nine" unicode="9" horiz-adv-x="628" 
d="M181 2q-42 12 -79 31q-9 5 -15 15t-6 21q0 16 11.5 28.5t29.5 12.5q9 0 17 -3q62 -29 133 -29q113 0 159 79t51 177q-30 -38 -80 -63t-125 -25q-68 0 -119.5 29t-80.5 82t-29 124q0 63 30 115t86 82t131 30q274 0 274 -358q0 -87 -28.5 -169t-93.5 -136.5t-168 -54.5
q-56 0 -98 12zM477 439q-27 184 -183 184q-46 0 -81.5 -19.5t-54.5 -52.5t-19 -72q0 -68 38 -109t111 -41q130 0 189 110z" />
    <glyph glyph-name="colon" unicode=":" horiz-adv-x="260" 
d="M85.5 411.5q-16.5 16.5 -16.5 39.5v6q0 23 16.5 39.5t39.5 16.5h10q23 0 39.5 -16.5t16.5 -39.5v-6q0 -23 -16.5 -39.5t-39.5 -16.5h-10q-23 0 -39.5 16.5zM85.5 13.5q-16.5 16.5 -16.5 39.5v6q0 23 16.5 39.5t39.5 16.5h10q23 0 39.5 -16.5t16.5 -39.5v-6
q0 -23 -16.5 -39.5t-39.5 -16.5h-10q-23 0 -39.5 16.5z" />
    <glyph glyph-name="semicolon" unicode=";" horiz-adv-x="260" 
d="M85.5 411.5q-16.5 16.5 -16.5 39.5v6q0 23 16.5 39.5t39.5 16.5h10q23 0 39.5 -16.5t16.5 -39.5v-6q0 -23 -16.5 -39.5t-39.5 -16.5h-10q-23 0 -39.5 16.5zM71.5 -142q-8.5 9 -8.5 21q0 16 15 25q25 15 38 35t13 58h-4q-23 0 -39.5 16.5t-16.5 39.5v6q0 23 16.5 39.5
t39.5 16.5h10q23 0 39.5 -16.5t16.5 -39.5v-59q0 -96 -82 -146q-8 -5 -17 -5q-12 0 -20.5 9z" />
    <glyph glyph-name="less" unicode="&#x3c;" horiz-adv-x="580" 
d="M470 61l-399 179q-17 8 -26.5 21.5t-9.5 30.5v8q0 17 9.5 30.5t26.5 21.5l399 179q8 3 16 3q17 0 28.5 -11.5t11.5 -28.5q0 -12 -7.5 -22.5t-19.5 -15.5l-360 -160l360 -160q12 -5 19.5 -15.5t7.5 -22.5q0 -17 -11.5 -28.5t-28.5 -11.5q-8 0 -16 3z" />
    <glyph glyph-name="equal" unicode="=" horiz-adv-x="712" 
d="M84.5 415.5q-11.5 11.5 -11.5 27.5q0 17 11.5 28t27.5 11h488q17 0 28 -11t11 -28q0 -16 -11 -27.5t-28 -11.5h-488q-16 0 -27.5 11.5zM84.5 191.5q-11.5 11.5 -11.5 27.5q0 17 11.5 28t27.5 11h488q17 0 28 -11t11 -28q0 -16 -11 -27.5t-28 -11.5h-488q-16 0 -27.5 11.5
z" />
    <glyph glyph-name="greater" unicode="&#x3e;" horiz-adv-x="580" 
d="M65.5 69.5q-11.5 11.5 -11.5 28.5q0 12 7.5 22.5t19.5 15.5l360 160l-360 160q-12 5 -19.5 15.5t-7.5 22.5q0 17 11.5 28.5t28.5 11.5q9 0 16 -3l399 -179q17 -8 26.5 -21.5t9.5 -30.5v-8q0 -17 -9.5 -30.5t-26.5 -21.5l-399 -179q-7 -3 -16 -3q-17 0 -28.5 11.5z" />
    <glyph glyph-name="question" unicode="?" horiz-adv-x="497" 
d="M189.5 197.5q-12.5 11.5 -12.5 27.5q0 45 16 79t37.5 56.5t57.5 51.5q38 30 56 52t18 50q0 109 -143 109q-35 0 -68.5 -8.5t-59.5 -24.5q-12 -8 -25 -8q-16 0 -28 12t-12 28q0 23 25 38q41 26 83 37t93 11q102 0 163.5 -51t61.5 -138q0 -39 -14 -68.5t-34 -50t-53 -46.5
q-43 -34 -64.5 -61.5t-21.5 -67.5q0 -16 -13 -27.5t-31 -11.5q-19 0 -31.5 11.5zM177.5 13.5q-17.5 17.5 -17.5 42.5q0 24 17.5 41.5t41.5 17.5q25 0 42.5 -17.5t17.5 -41.5q0 -25 -17.5 -42.5t-42.5 -17.5q-24 0 -41.5 17.5z" />
    <glyph glyph-name="at" unicode="@" horiz-adv-x="898" 
d="M216 -35.5q-80 47.5 -123.5 127t-43.5 170.5q0 113 58 211t155.5 156.5t210.5 58.5q103 0 190.5 -44.5t139 -123t51.5 -178.5q0 -63 -19.5 -119t-61 -92t-105.5 -36q-50 0 -78 22t-34 52q-31 -38 -74 -56.5t-91 -18.5q-80 0 -125 49t-45 127q0 75 33.5 130t88 84
t115.5 29q75 0 128 -51l3 17q2 13 12.5 22t24.5 9q15 0 25.5 -10.5t10.5 -26.5l-1 -11l-33 -190q-7 -37 -7 -65t12.5 -46.5t37.5 -18.5q62 0 95.5 54t33.5 146t-47 158.5t-122.5 100.5t-157.5 34q-99 0 -184.5 -51t-136.5 -137t-51 -185q0 -74 35.5 -141.5t103 -109.5
t160.5 -42q61 0 106 11.5t103 34.5q6 2 11 2q11 0 18 -7t7 -17q0 -7 -4 -13.5t-10 -9.5q-106 -53 -231 -53q-104 0 -184 47.5zM559 303l16 93q-44 46 -113 46q-43 0 -80.5 -19t-60.5 -55.5t-23 -87.5q0 -58 32 -87.5t83 -29.5q122 0 146 140z" />
    <glyph glyph-name="A" unicode="A" horiz-adv-x="746" 
d="M62.5 8q-12.5 13 -12.5 32q0 8 5 20l255 602q8 18 22.5 29.5t35.5 11.5h10q21 0 35.5 -11.5t22.5 -29.5l255 -602q5 -12 5 -20q0 -19 -12.5 -32t-32.5 -13q-14 0 -25.5 7.5t-17.5 20.5l-65 156h-340l-65 -156q-6 -13 -17.5 -20.5t-25.5 -7.5q-20 0 -32.5 13zM238 262h270
l-135 325z" />
    <glyph glyph-name="B" unicode="B" horiz-adv-x="693" 
d="M110 13q-13 13 -13 32v607q0 19 13 32.5t32 13.5h236q107 0 165.5 -49t58.5 -132q0 -58 -27.5 -96.5t-70.5 -57.5q60 -19 98.5 -61t38.5 -106q0 -92 -62 -144t-195 -52h-242q-19 0 -32 13zM354 396q89 0 125 30t36 84q0 47 -38.5 75t-105.5 28h-183v-217h166zM375 85
q97 0 137.5 30t40.5 85q0 114 -177 114h-188v-229h187z" />
    <glyph glyph-name="C" unicode="C" horiz-adv-x="695" 
d="M225.5 33.5q-79.5 43.5 -125 125t-45.5 190.5t45.5 190.5t125 125t179.5 43.5q68 0 121.5 -16t106.5 -46q22 -12 22 -38q0 -15 -11 -26.5t-29 -11.5q-10 0 -18 4q-44 23 -86 35t-97 12q-86 0 -146.5 -35.5t-91 -97t-30.5 -139.5t30.5 -139.5t91 -97t146.5 -35.5
q55 0 97 12t86 35q8 4 18 4q18 0 29 -11t11 -27q0 -26 -22 -38q-53 -30 -106.5 -46t-121.5 -16q-100 0 -179.5 43.5z" />
    <glyph glyph-name="D" unicode="D" horiz-adv-x="751" 
d="M110 13q-13 13 -13 32v607q0 19 13 32.5t32 13.5h201q114 0 193.5 -50.5t119.5 -130.5t40 -168t-40 -168t-119.5 -130.5t-193.5 -50.5h-201q-19 0 -32 13zM332 85q82 0 144 33.5t96 93t34 137.5t-34 137.5t-96 93t-144 33.5h-144v-528h144z" />
    <glyph glyph-name="E" unicode="E" horiz-adv-x="638" 
d="M110 13q-13 13 -13 32v607q0 19 13 32.5t32 13.5h401q18 0 30.5 -12.5t12.5 -30.5t-12.5 -30t-30.5 -12h-355v-221h319q18 0 30.5 -12.5t12.5 -30.5t-12.5 -30t-30.5 -12h-319v-222h355q18 0 30.5 -12.5t12.5 -30.5t-12.5 -30t-30.5 -12h-401q-19 0 -32 13z" />
    <glyph glyph-name="F" unicode="F" horiz-adv-x="608" 
d="M110 8q-13 13 -13 32v612q0 19 13 32.5t32 13.5h389q18 0 30.5 -12.5t12.5 -30.5t-12.5 -30t-30.5 -12h-343v-221h308q18 0 30.5 -12.5t12.5 -30.5t-12.5 -30t-30.5 -12h-308v-267q0 -19 -13.5 -32t-32.5 -13t-32 13z" />
    <glyph glyph-name="G" unicode="G" horiz-adv-x="757" 
d="M223 35.5q-80 45.5 -124 127t-44 185.5q0 106 46 188t125.5 127t176.5 45q78 0 136.5 -19t112.5 -53q8 -4 14 -14t6 -22q0 -17 -11.5 -29t-30.5 -12q-11 0 -21 5q-47 28 -94 42t-102 14q-76 0 -137 -32t-95.5 -93.5t-34.5 -146.5q0 -78 32.5 -139.5t94 -97t145.5 -35.5
q94 0 175 44v181h-165q-17 0 -29 12t-12 29t12 29t29 12h197q20 0 34 -14t14 -34v-227q0 -21 -10.5 -37.5t-27.5 -24.5q-112 -56 -229 -56q-103 0 -183 45.5z" />
    <glyph glyph-name="H" unicode="H" horiz-adv-x="755" 
d="M110 8q-13 13 -13 32v617q0 19 13 32.5t32 13.5t32.5 -13.5t13.5 -32.5v-266h379v266q0 19 13 32.5t32 13.5t32.5 -13.5t13.5 -32.5v-617q0 -19 -13.5 -32t-32.5 -13t-32 13t-13 32v266h-379v-266q0 -19 -13.5 -32t-32.5 -13t-32 13z" />
    <glyph glyph-name="I" unicode="I" horiz-adv-x="285" 
d="M110 8q-13 13 -13 32v617q0 19 13 32.5t32 13.5t32.5 -13.5t13.5 -32.5v-617q0 -19 -13.5 -32t-32.5 -13t-32 13z" />
    <glyph glyph-name="J" unicode="J" horiz-adv-x="466" 
d="M35 24q-22 13 -22 37q0 16 10.5 28.5t27.5 12.5q10 0 18 -4q46 -22 93 -22q54 0 87.5 31t33.5 117v433q0 19 13 32.5t32 13.5t32.5 -13.5t13.5 -32.5v-427q0 -131 -58.5 -185.5t-147.5 -54.5q-73 0 -133 34z" />
    <glyph glyph-name="K" unicode="K" horiz-adv-x="670" 
d="M110 8q-13 13 -13 32v617q0 19 13 32.5t32 13.5t32.5 -13.5t13.5 -32.5v-318l342 348q14 16 34 16q17 0 29.5 -11.5t12.5 -28.5q0 -20 -11 -31l-231 -230l265 -334q11 -14 11 -29q1 -18 -12 -31t-32 -13q-23 0 -36 18l-258 329l-114 -115v-187q0 -19 -13.5 -32t-32.5 -13
t-32 13z" />
    <glyph glyph-name="L" unicode="L" horiz-adv-x="576" 
d="M115.5 18.5q-18.5 18.5 -18.5 44.5v594q0 19 13 32.5t32 13.5t32.5 -13.5t13.5 -32.5v-566h327q19 0 32.5 -13.5t13.5 -32.5t-13.5 -32t-32.5 -13h-355q-26 0 -44.5 18.5z" />
    <glyph glyph-name="M" unicode="M" horiz-adv-x="966" 
d="M110 8q-13 13 -13 32v597q0 27 19 46.5t46 19.5h33q20 0 36.5 -12t24.5 -30l227 -566l227 566q8 18 24.5 30t36.5 12h33q27 0 46 -19.5t19 -46.5v-597q0 -19 -13 -32t-32 -13t-32.5 13t-13.5 32v568l-231 -571q-8 -19 -25.5 -30.5t-38.5 -11.5t-38.5 11.5t-25.5 30.5
l-231 571v-568q0 -19 -13.5 -32t-32.5 -13t-32 13z" />
    <glyph glyph-name="N" unicode="N" horiz-adv-x="803" 
d="M110 8q-13 13 -13 32v597q0 27 19 46.5t46 19.5h13q32 0 55 -30l385 -556v540q0 19 13 32.5t32 13.5t32.5 -13.5t13.5 -32.5v-597q0 -27 -19.5 -46t-46.5 -19h-12q-16 0 -30 7.5t-23 19.5l-387 559v-541q0 -19 -13.5 -32t-32.5 -13t-32 13z" />
    <glyph glyph-name="O" unicode="O" horiz-adv-x="812" 
d="M222 36q-79 46 -122 127t-45 186q2 105 45 186t122 127t184 46t183.5 -46t122 -127.5t45.5 -185.5q-2 -104 -45.5 -185.5t-122 -127.5t-183.5 -46t-184 46zM545 111q59 36 90 98t31 140t-31 140t-90 98t-139 36q-81 0 -139.5 -36t-89.5 -98t-31 -140t31 -140t89.5 -98
t139.5 -36q80 0 139 36z" />
    <glyph glyph-name="P" unicode="P" horiz-adv-x="672" 
d="M110 8q-13 13 -13 32v612q0 19 13 32.5t32 13.5h228q95 0 155 -32t86 -82t26 -108t-26 -108t-86 -82t-155 -32h-182v-214q0 -19 -13.5 -32t-32.5 -13t-32 13zM361 340q102 0 143.5 39t41.5 97t-41.5 97t-143.5 39h-173v-272h173z" />
    <glyph glyph-name="Q" unicode="Q" horiz-adv-x="812" 
d="M575 -136l-109 130q-25 -4 -60 -4q-105 0 -184 46t-122 127t-45 186q2 105 45 186t122 127t184 46t183.5 -46t122 -127.5t45.5 -185.5q-2 -117 -56.5 -204.5t-150.5 -127.5l88 -97q12 -12 12 -29q1 -17 -12 -30t-31 -13q-19 0 -32 16zM545 111q59 36 90 98t31 140
t-31 140t-90 98t-139 36q-81 0 -139.5 -36t-89.5 -98t-31 -140t31 -140t89.5 -98t139.5 -36q80 0 139 36z" />
    <glyph glyph-name="R" unicode="R" horiz-adv-x="712" 
d="M110 8q-13 13 -13 32v612q0 19 13 32.5t32 13.5h233q136 0 204 -56t68 -147q0 -60 -33.5 -109.5t-97.5 -71.5q72 -19 98.5 -89.5t26.5 -138.5v-46q0 -19 -13 -32t-32 -13q-21 0 -33.5 12.5t-12.5 32.5v30q0 50 -9 92.5t-43 76t-103 33.5h-207v-232q0 -19 -13.5 -32
t-32.5 -13t-32 13zM369 358q86 0 136.5 34t50.5 96q0 60 -43.5 92t-148.5 32h-176v-254h181z" />
    <glyph glyph-name="S" unicode="S" horiz-adv-x="616" 
d="M79 38q-12 5 -20 16.5t-8 24.5q0 17 11.5 29.5t29.5 12.5q10 0 19 -4q92 -41 197 -41q175 0 175 115q0 30 -22.5 50t-55.5 31.5t-94 27.5q-81 21 -131 40.5t-86 58.5t-36 104q0 57 30 103.5t88.5 74t140.5 27.5q110 0 199 -33q28 -10 28 -40q0 -16 -11 -29t-29 -13
q-6 0 -16 4q-78 27 -161 27q-79 0 -128.5 -30t-49.5 -84q0 -36 23.5 -58.5t59 -35t96.5 -26.5q79 -19 127.5 -38t83 -59t34.5 -108q0 -56 -32 -100.5t-90 -69.5t-134 -25q-127 0 -238 48z" />
    <glyph glyph-name="T" unicode="T" horiz-adv-x="609" 
d="M272 8q-13 13 -13 32v573h-204q-18 0 -30 12t-12 30t12 30.5t30 12.5h498q18 0 30.5 -12.5t12.5 -30.5t-12.5 -30t-30.5 -12h-203v-573q0 -19 -13.5 -32t-32.5 -13t-32 13z" />
    <glyph glyph-name="U" unicode="U" horiz-adv-x="758" 
d="M242 20q-66 30 -108 91.5t-42 150.5v395q0 19 13 32.5t32 13.5t32.5 -13.5t13.5 -32.5v-398q0 -60 27.5 -102t72.5 -63t96 -21t96 21t72.5 63t27.5 102v398q0 19 13 32.5t32 13.5t32.5 -13.5t13.5 -32.5v-395q0 -89 -42 -150.5t-108 -91.5t-137 -30t-137 30z" />
    <glyph glyph-name="V" unicode="V" horiz-adv-x="694" 
d="M274 41l-247 599q-3 8 -3 17q0 21 12 33.5t33 12.5q14 0 25.5 -8.5t17.5 -22.5l235 -586l235 586q6 14 17.5 22.5t25.5 8.5q21 0 33 -12.5t12 -33.5q0 -9 -3 -17l-247 -599q-21 -46 -62 -46h-22q-41 0 -62 46z" />
    <glyph glyph-name="W" unicode="W" horiz-adv-x="1011" 
d="M250.5 6.5q-15.5 11.5 -23.5 33.5l-196 602q-3 11 -3 17q-1 19 11.5 31.5t32.5 12.5q16 0 28 -10t17 -26l168 -552l169 550q5 17 19.5 27.5t32.5 10.5t32.5 -10.5t19.5 -27.5l169 -550l168 552q5 16 17 26t28 10q20 0 32.5 -12.5t11.5 -31.5q0 -6 -3 -17l-196 -602
q-8 -22 -23.5 -33.5t-35.5 -11.5t-36.5 12.5t-22.5 32.5l-161 510l-161 -510q-6 -20 -22.5 -32.5t-36.5 -12.5t-35.5 11.5z" />
    <glyph glyph-name="X" unicode="X" horiz-adv-x="671" 
d="M56.5 7.5q-12.5 12.5 -12.5 29.5q0 16 9 28l231 284l-229 282q-9 12 -9 28q0 19 12.5 31.5t31.5 12.5q11 0 21 -5t16 -13l211 -268l211 270q11 16 33 16q18 0 31 -12.5t13 -30.5q0 -14 -8 -25l-231 -285l231 -284q9 -10 9 -26q0 -19 -12.5 -32t-32.5 -13q-22 0 -36 19
l-214 269l-211 -270q-15 -18 -35 -18q-17 0 -29.5 12.5z" />
    <glyph glyph-name="Y" unicode="Y" horiz-adv-x="639" 
d="M287.5 8q-13.5 13 -13.5 32v255l-239 335q-8 13 -8 27q0 19 12.5 32.5t31.5 13.5q25 0 40 -23l209 -304l209 304q15 23 40 23q19 0 32 -13.5t12 -32.5q0 -14 -8 -27l-240 -335v-255q0 -19 -13 -32t-32 -13t-32.5 13z" />
    <glyph glyph-name="Z" unicode="Z" horiz-adv-x="638" 
d="M64 17q-17 17 -17 41q0 22 12 37l418 516h-385q-18 0 -30.5 12.5t-12.5 30.5t12.5 31t30.5 13h434q28 0 44.5 -18t16.5 -44q0 -10 -4.5 -21t-11.5 -19l-413 -511h392q18 0 30.5 -12.5t12.5 -30.5t-12.5 -30t-30.5 -12h-445q-24 0 -41 17z" />
    <glyph glyph-name="bracketleft" unicode="[" horiz-adv-x="322" 
d="M100 -119q-13 13 -13 31v776q0 18 13 31t31 13h127q15 0 25.5 -10.5t10.5 -25.5t-10.5 -25.5t-25.5 -10.5h-92v-721h92q15 0 25.5 -10.5t10.5 -24.5t-10.5 -25t-25.5 -11h-127q-18 0 -31 13z" />
    <glyph glyph-name="backslash" unicode="\" horiz-adv-x="443" 
d="M329 -87q-10 8 -14 20l-265 775q-3 9 -3 15q0 17 11.5 29t29.5 12q15 0 25 -8t14 -20l265 -775q3 -9 3 -15q0 -17 -11.5 -29t-29.5 -12q-15 0 -25 8z" />
    <glyph glyph-name="bracketright" unicode="]" horiz-adv-x="322" 
d="M38.5 -121q-10.5 11 -10.5 25t10.5 24.5t25.5 10.5h92v721h-92q-15 0 -25.5 10.5t-10.5 25.5t10.5 25.5t25.5 10.5h127q18 0 31 -13t13 -31v-776q0 -18 -13 -31t-31 -13h-127q-15 0 -25.5 11z" />
    <glyph glyph-name="asciicircum" unicode="^" horiz-adv-x="524" 
d="M92.5 425.5q-10.5 10.5 -10.5 25.5q0 6 6 18l105 199q9 16 20 25t29 9h38q18 0 29 -9t20 -25l105 -199q6 -12 6 -18q0 -15 -10.5 -25.5t-25.5 -10.5q-17 0 -26 11q3 -3 -117 190l-102 -166l-15 -24q-9 -11 -26 -11q-15 0 -25.5 10.5z" />
    <glyph glyph-name="underscore" unicode="_" horiz-adv-x="663" 
d="M62 -137.5q-10 9.5 -10 23.5q0 13 10 23t23 10h493q14 0 23.5 -10t9.5 -23q0 -14 -9.5 -23.5t-23.5 -9.5h-493q-13 0 -23 9.5z" />
    <glyph glyph-name="grave" unicode="`" horiz-adv-x="246" 
d="M178 578l-69 82q-10 11 -10 25q0 17 10 27t27 10q23 0 33 -19l51 -90q7 -10 7 -19q0 -12 -7.5 -19.5t-19.5 -7.5q-13 0 -22 11z" />
    <glyph glyph-name="a" unicode="a" horiz-adv-x="562" 
d="M127.5 8q-37.5 18 -59.5 52.5t-22 79.5q0 74 58.5 118t171.5 44h121v8q0 66 -32.5 95t-101.5 29q-38 0 -67.5 -6t-65.5 -18q-8 -2 -13 -2q-15 0 -26 11t-11 27q0 27 26 38q85 36 173 36q69 0 116.5 -28t70 -72.5t22.5 -96.5v-283q0 -19 -13.5 -32t-32.5 -13t-32 13
t-13 32v26q-74 -76 -188 -76q-44 0 -81.5 18zM328 91.5q41 21.5 69 53.5v84h-109q-151 0 -151 -79q0 -36 24.5 -58t81.5 -22q44 0 85 21.5z" />
    <glyph glyph-name="b" unicode="b" horiz-adv-x="631" 
d="M170 66v-26q0 -19 -13.5 -32t-32.5 -13t-32 13t-13 32v649q0 19 13 32.5t32 13.5q20 0 33 -13t13 -33v-245q73 76 171 76q62 0 117.5 -31.5t90 -92t34.5 -141.5t-34.5 -141.5t-90 -92t-117.5 -31.5q-98 0 -171 76zM447 122q45 47 45 133t-45 133t-119 47
q-46 0 -86.5 -20.5t-71.5 -54.5v-210q31 -34 71.5 -54.5t86.5 -20.5q74 0 119 47z" />
    <glyph glyph-name="c" unicode="c" horiz-adv-x="533" 
d="M182 22q-61 32 -97.5 92t-36.5 141t36.5 141t97.5 92t133 32q53 0 91.5 -13.5t71.5 -34.5q20 -13 20 -35q0 -15 -11.5 -27.5t-26.5 -12.5q-11 0 -22 6q-33 17 -56.5 24.5t-58.5 7.5q-86 0 -135 -49.5t-49 -130.5t49 -130.5t135 -49.5q35 0 58.5 7.5t56.5 24.5q11 6 22 6
q15 0 26.5 -12.5t11.5 -27.5q0 -22 -20 -35q-33 -21 -71.5 -34.5t-91.5 -13.5q-72 0 -133 32z" />
    <glyph glyph-name="d" unicode="d" horiz-adv-x="631" 
d="M172.5 21.5q-55.5 31.5 -90 92t-34.5 141.5t34.5 141.5t90 92t117.5 31.5q98 0 171 -76v245q0 20 13.5 33t32.5 13t32 -13.5t13 -32.5v-649q0 -19 -13 -32t-32 -13t-32.5 13t-13.5 32v26q-73 -76 -171 -76q-62 0 -117.5 31.5zM389.5 95.5q40.5 20.5 71.5 54.5v210
q-31 34 -71.5 54.5t-86.5 20.5q-74 0 -119 -47t-45 -133t45 -133t119 -47q46 0 86.5 20.5z" />
    <glyph glyph-name="e" unicode="e" horiz-adv-x="566" 
d="M116.5 59.5q-68.5 69.5 -68.5 195.5q0 71 26 131t80 97t133 37q74 0 128 -34.5t82 -92t28 -125.5q0 -19 -12.5 -32t-33.5 -13h-339q8 -70 52 -109t123 -39q42 0 73.5 8t61.5 23q8 4 18 4q16 0 28 -11t12 -28q0 -22 -26 -37q-39 -22 -77 -33t-98 -11q-122 0 -190.5 69.5z
M435 297q-3 49 -25.5 82t-55.5 48.5t-67 15.5t-67 -15.5t-55 -48.5t-25 -82h295z" />
    <glyph glyph-name="f" unicode="f" horiz-adv-x="382" 
d="M130 8q-13 13 -13 32v392h-59q-16 0 -27.5 11.5t-11.5 27.5q0 17 11.5 28t27.5 11h59v58q0 60 21.5 98.5t56 56t72.5 17.5q47 0 87 -20q10 -5 16.5 -14.5t6.5 -20.5q0 -15 -11 -26.5t-26 -11.5q-11 0 -23 3q-24 3 -27 3q-41 0 -61.5 -19t-20.5 -69v-55h125q17 0 28 -11
t11 -28q0 -16 -11 -27.5t-28 -11.5h-125v-392q0 -19 -13.5 -32t-32.5 -13t-32 13z" />
    <glyph glyph-name="g" unicode="g" horiz-adv-x="631" 
d="M200 -225q-59 15 -97 37q-18 11 -18 35q0 16 11.5 28.5t28.5 12.5q8 0 18 -4q76 -38 165 -38q153 0 153 163v67q-71 -76 -171 -76q-59 0 -114.5 29.5t-91.5 88t-36 142.5t36 142.5t91.5 88t114.5 29.5q100 0 171 -76v25q0 19 13 32.5t32 13.5t32.5 -13.5t13.5 -32.5v-447
q0 -126 -61 -194t-174 -68q-58 0 -117 15zM392 103q36 20 69 54v206q-33 34 -69 54t-83 20q-75 0 -122.5 -45.5t-47.5 -131.5t47.5 -131.5t122.5 -45.5q47 0 83 20z" />
    <glyph glyph-name="h" unicode="h" horiz-adv-x="609" 
d="M92 8q-13 13 -13 32v649q0 19 13 32.5t32 13.5t32.5 -13.5t13.5 -32.5v-261q38 42 82 67t104 25q55 0 95.5 -26t62 -71t21.5 -99v-284q0 -19 -13.5 -32t-32.5 -13t-32 13t-13 32v274q0 122 -110 122q-50 0 -89.5 -26t-74.5 -70v-300q0 -19 -13.5 -32t-32.5 -13t-32 13z
" />
    <glyph glyph-name="i" unicode="i" horiz-adv-x="249" 
d="M86 629q-15 15 -15 36v4q0 21 15 36t36 15h6q21 0 36 -15t15 -36v-4q0 -21 -15 -36t-36 -15h-6q-21 0 -36 15zM92 8q-13 13 -13 32v429q0 19 13 32.5t32 13.5q20 0 33 -13t13 -33v-429q0 -19 -13.5 -32t-32.5 -13t-32 13z" />
    <glyph glyph-name="j" unicode="j" horiz-adv-x="254" 
d="M91 629q-15 15 -15 36v4q0 21 15 36t36 15h6q21 0 36 -15t15 -36v-4q0 -21 -15 -36t-36 -15h-6q-21 0 -36 15zM-19 -231q-12 4 -19 13.5t-7 22.5q0 15 11 26.5t27 11.5q6 0 15 -1.5t15 -1.5q31 0 46 11t15 48v569q0 19 13 32.5t32 13.5q20 0 33 -13t13 -33v-571
q0 -62 -31.5 -99.5t-99.5 -37.5q-36 0 -63 9z" />
    <glyph glyph-name="k" unicode="k" horiz-adv-x="545" 
d="M92 8q-13 13 -13 32v649q0 19 13 32.5t32 13.5t32.5 -13.5t13.5 -32.5v-409l238 220q15 13 30 13q23 0 33.5 -13t10.5 -31q0 -17 -17 -34l-144 -129l181 -240q10 -13 10 -27q0 -20 -13 -32t-33 -12q-10 0 -20 5t-17 14l-172 234l-87 -79v-129q0 -19 -13.5 -32t-32.5 -13
t-32 13z" />
    <glyph glyph-name="l" unicode="l" horiz-adv-x="249" 
d="M92 8q-13 13 -13 32v649q0 19 13 32.5t32 13.5q20 0 33 -13t13 -33v-649q0 -19 -13.5 -32t-32.5 -13t-32 13z" />
    <glyph glyph-name="m" unicode="m" horiz-adv-x="918" 
d="M92 8q-13 13 -13 32v429q0 19 13 32.5t32 13.5t32.5 -13.5t13.5 -32.5v-41q28 40 67.5 66t102.5 26q56 0 96 -30t57 -73q62 103 184 103q56 0 93.5 -28t55.5 -72t18 -92v-288q0 -19 -13.5 -32t-32.5 -13t-32 13t-13 32v270q0 65 -23 95.5t-79 30.5q-51 0 -84.5 -26.5
t-59.5 -69.5v-300q0 -19 -13.5 -32t-32.5 -13t-32 13t-13 32v270q0 65 -23 95.5t-79 30.5q-51 0 -84.5 -26.5t-59.5 -69.5v-300q0 -19 -13.5 -32t-32.5 -13t-32 13z" />
    <glyph glyph-name="n" unicode="n" horiz-adv-x="609" 
d="M92 8q-13 13 -13 32v429q0 19 13 32.5t32 13.5t32.5 -13.5t13.5 -32.5v-41q38 42 82 67t104 25q55 0 95.5 -26t62 -71t21.5 -99v-284q0 -19 -13.5 -32t-32.5 -13t-32 13t-13 32v274q0 122 -110 122q-50 0 -89.5 -26t-74.5 -70v-300q0 -19 -13.5 -32t-32.5 -13t-32 13z
" />
    <glyph glyph-name="o" unicode="o" horiz-adv-x="608" 
d="M169 23q-58 33 -89.5 93.5t-31.5 138.5t31.5 138.5t89.5 93.5t135 33q76 0 134 -33t90 -93.5t32 -138.5t-32 -138.5t-90 -93.5t-134 -33q-77 0 -135 33zM382.5 92q37.5 19 62 60t24.5 104q0 62 -24.5 103t-62 59.5t-78.5 18.5q-42 0 -79.5 -18.5t-61.5 -59.5t-24 -103
q0 -63 24 -104t61.5 -60t79.5 -19q41 0 78.5 19z" />
    <glyph glyph-name="p" unicode="p" horiz-adv-x="631" 
d="M92 -221.5q-13 13.5 -13 32.5v659q0 19 13 32t32 13t32.5 -13t13.5 -32v-26q73 76 171 76q62 0 117.5 -31.5t90 -92t34.5 -141.5t-34.5 -141.5t-90 -92t-117.5 -31.5q-98 0 -171 76v-255q0 -20 -13 -33t-33 -13q-19 0 -32 13.5zM447 122q45 47 45 133t-45 133t-119 47
q-46 0 -86.5 -20.5t-71.5 -54.5v-210q31 -34 71.5 -54.5t86.5 -20.5q74 0 119 47z" />
    <glyph glyph-name="q" unicode="q" horiz-adv-x="631" 
d="M474.5 -222q-13.5 13 -13.5 33v255q-73 -76 -171 -76q-62 0 -117.5 31.5t-90 92t-34.5 141.5t34.5 141.5t90 92t117.5 31.5q98 0 171 -76v26q0 19 13.5 32t32.5 13t32 -13t13 -32v-659q0 -19 -13 -32.5t-32 -13.5t-32.5 13zM389.5 95.5q40.5 20.5 71.5 54.5v210
q-31 34 -71.5 54.5t-86.5 20.5q-74 0 -119 -47t-45 -133t45 -133t119 -47q46 0 86.5 20.5z" />
    <glyph glyph-name="r" unicode="r" horiz-adv-x="383" 
d="M92 8q-13 13 -13 32v429q0 19 13 32.5t32 13.5t32.5 -13.5t13.5 -32.5v-43q70 94 157 94h5q19 0 31.5 -13t12.5 -32t-13 -31t-33 -12h-5q-48 0 -88 -23.5t-67 -64.5v-304q0 -19 -13.5 -32t-32.5 -13t-32 13z" />
    <glyph glyph-name="s" unicode="s" horiz-adv-x="480" 
d="M62 35q-17 12 -17 33q0 16 11 28t28 12q9 0 18 -4q32 -14 64 -22t72 -8q111 0 111 71q0 23 -25.5 35t-83.5 27q-59 14 -97.5 29t-66 45.5t-27.5 80.5q0 70 50.5 114t144.5 44q77 0 145 -25q14 -4 21.5 -15t7.5 -23q0 -16 -11.5 -28t-28.5 -12q-5 0 -13 2q-58 18 -114 18
q-54 0 -84.5 -19.5t-30.5 -50.5q0 -30 28 -44t87 -27q59 -15 96 -29.5t63.5 -45.5t26.5 -83q0 -64 -50.5 -106t-142.5 -42q-100 0 -182 45z" />
    <glyph glyph-name="t" unicode="t" horiz-adv-x="382" 
d="M109 122v310h-71q-8 0 -13.5 5.5t-5.5 13.5q0 10 9 17l136 133q9 9 17 9t13.5 -6t5.5 -14v-80h113q17 0 28 -11t11 -28q0 -16 -11 -27.5t-28 -11.5h-113v-302q0 -39 18.5 -49.5t46.5 -10.5q20 0 40 6q4 1 8.5 2t11.5 1q14 0 25 -10.5t11 -25.5q0 -23 -23 -35
q-39 -18 -83 -18q-146 0 -146 132z" />
    <glyph glyph-name="u" unicode="u" horiz-adv-x="609" 
d="M157.5 16q-40.5 26 -62 71t-21.5 99v284q0 19 13.5 32t32.5 13t32 -13t13 -32v-274q0 -122 110 -122q50 0 89.5 26t74.5 70v300q0 19 13.5 32t32.5 13t32 -13t13 -32v-429q0 -19 -13 -32.5t-32 -13.5t-32.5 13.5t-13.5 32.5v41q-38 -42 -82 -67t-104 -25q-55 0 -95.5 26z
" />
    <glyph glyph-name="v" unicode="v" horiz-adv-x="530" 
d="M227 5.5q-15 10.5 -22 26.5l-174 416q-5 12 -5 21q0 19 13 32.5t32 13.5q13 0 24.5 -7.5t16.5 -18.5l153 -388l153 388q5 11 16.5 18.5t24.5 7.5q19 0 32 -13.5t13 -32.5q0 -9 -5 -21l-174 -416q-7 -16 -22 -26.5t-33 -10.5h-10q-18 0 -33 10.5z" />
    <glyph glyph-name="w" unicode="w" horiz-adv-x="792" 
d="M195 7q-16 12 -22 30l-142 416q-3 9 -3 17q0 19 13 32t32 13q14 0 25.5 -7.5t15.5 -19.5l117 -385l116 376q5 16 18.5 26t30.5 10t30.5 -10t18.5 -26l116 -376l117 385q4 12 15.5 19.5t25.5 7.5q19 0 32 -13t13 -32q0 -8 -3 -17l-142 -416q-6 -18 -22 -30t-36 -12t-36 12
t-23 31l-106 331l-106 -331q-7 -19 -23 -31t-36 -12t-36 12z" />
    <glyph glyph-name="x" unicode="x" horiz-adv-x="541" 
d="M62.5 7.5q-11.5 12.5 -11.5 33.5q0 15 10 28l155 183l-155 189q-11 14 -11 29q0 20 13 32.5t32 12.5q24 0 36 -17l140 -173l139 173q12 17 35 17q20 0 33 -12.5t13 -30.5q0 -15 -10 -28l-158 -186l156 -188q11 -12 11 -29q0 -19 -12 -32.5t-34 -13.5t-35 18l-142 170
l-134 -168q-15 -20 -39 -20q-20 0 -31.5 12.5z" />
    <glyph glyph-name="y" unicode="y" horiz-adv-x="537" 
d="M162.5 -222q-12.5 13 -12.5 31q0 8 3 16l65 167l-188 458q-4 10 -4 19q0 19 13 32.5t32 13.5q14 0 25.5 -8t16.5 -20l154 -382l157 380q13 30 42 30q19 0 32 -13.5t13 -32.5q0 -9 -3 -17l-273 -656q-14 -31 -42 -31q-18 0 -30.5 13z" />
    <glyph glyph-name="z" unicode="z" horiz-adv-x="498" 
d="M58 14q-18 14 -18 39q0 23 16 41l288 331h-253q-18 0 -30 12t-12 30t12 30.5t30 12.5h303q26 0 42 -16t16 -41q0 -23 -14 -40l-280 -328h257q18 0 30.5 -12.5t12.5 -30.5t-12.5 -30t-30.5 -12h-312q-27 0 -45 14z" />
    <glyph glyph-name="braceleft" unicode="{" horiz-adv-x="344" 
d="M165.5 -119q-36.5 26 -36.5 94v211q0 21 -5 35t-25 26.5t-62 19.5q-17 3 -25.5 13.5t-8.5 26.5t8.5 26.5t25.5 13.5q42 7 62 19.5t25 26.5t5 35v211q0 68 36.5 94t103.5 26h12q14 0 24.5 -10.5t10.5 -24.5t-10.5 -24.5t-24.5 -10.5h-15q-38 0 -48.5 -12t-10.5 -30v-222
q0 -85 -90 -118q90 -33 90 -118v-222q0 -18 10.5 -30t48.5 -12h15q14 0 24.5 -10.5t10.5 -24.5t-10.5 -24.5t-24.5 -10.5h-12q-67 0 -103.5 26z" />
    <glyph glyph-name="bar" unicode="|" horiz-adv-x="253" 
d="M97.5 -184.5q-11.5 11.5 -11.5 28.5v856q0 17 11.5 29t28.5 12t29 -12t12 -29v-856q0 -17 -12 -28.5t-29 -11.5t-28.5 11.5z" />
    <glyph glyph-name="braceright" unicode="}" horiz-adv-x="344" 
d="M38.5 -134.5q-10.5 10.5 -10.5 24.5t10.5 24.5t24.5 10.5h15q38 0 48.5 12t10.5 30v222q0 85 90 118q-90 33 -90 118v222q0 18 -10.5 30t-48.5 12h-15q-14 0 -24.5 10.5t-10.5 24.5t10.5 24.5t24.5 10.5h12q67 0 103.5 -26t36.5 -94v-211q0 -21 5 -35t25 -26.5t62 -19.5
q17 -3 25.5 -13.5t8.5 -26.5t-8.5 -26.5t-25.5 -13.5q-42 -7 -62 -19.5t-25 -26.5t-5 -35v-211q0 -68 -36.5 -94t-103.5 -26h-12q-14 0 -24.5 10.5z" />
    <glyph glyph-name="asciitilde" unicode="~" horiz-adv-x="638" 
d="M370.5 217q-31.5 11 -76.5 32q-35 17 -56.5 25t-43.5 8q-55 0 -70 -54q-2 -8 -8.5 -13.5t-15.5 -5.5q-10 0 -18 8t-8 18q0 31 17.5 62t47 50.5t62.5 19.5q39 0 70.5 -11t76.5 -32q35 -17 56.5 -25t43.5 -8q28 0 39 9t23 32q3 8 9 19q8 15 24 15q11 0 19 -8t5 -23
q-12 -63 -46 -96t-81 -33q-38 0 -69.5 11z" />
    <glyph glyph-name="uni00A0" unicode="&#xa0;" horiz-adv-x="260" 
 />
    <glyph glyph-name="exclamdown" unicode="&#xa1;" horiz-adv-x="259" 
d="M88.5 412.5q-17.5 17.5 -17.5 41.5q0 25 17.5 42.5t41.5 17.5q25 0 42.5 -17.5t17.5 -42.5q0 -24 -17.5 -41.5t-42.5 -17.5q-24 0 -41.5 17.5zM93 -178q-15 15 -15 37v99l18 330q1 13 10 21t24 8t23.5 -8t9.5 -21l18 -330v-99q0 -22 -14.5 -37t-36.5 -15t-37 15z" />
    <glyph glyph-name="cent" unicode="&#xa2;" horiz-adv-x="551" 
d="M163 -114.5q-8 8.5 -8 19.5q0 7 3 13l33 97q-67 30 -107 92t-40 148q0 81 36.5 141t97.5 92t133 32q20 0 52 -4l29 85q3 8 10.5 13.5t16.5 5.5q12 0 20 -8.5t8 -20.5q0 -4 -2 -10l-27 -80q28 -10 56 -29q20 -13 20 -35q0 -15 -11.5 -27.5t-26.5 -12.5q-11 0 -22 6l-43 20
l-118 -344q19 -4 46 -4q35 0 58.5 7.5t56.5 24.5q11 6 22 6q15 0 26.5 -12.5t11.5 -27.5q0 -22 -20 -35q-33 -21 -71.5 -34.5t-91.5 -13.5q-32 0 -66 8l-35 -103q-3 -9 -10.5 -13.5t-16.5 -4.5q-12 0 -20 8.5zM335 434q-5 1 -16 1q-86 0 -135 -49.5t-49 -130.5
q0 -54 22 -94.5t63 -62.5z" />
    <glyph glyph-name="sterling" unicode="&#xa3;" horiz-adv-x="604" 
d="M553 81.5q12 -11.5 12 -28.5q0 -23 -23 -36q-49 -27 -106 -27q-28 0 -48.5 5.5t-50.5 16.5q-28 11 -49.5 17t-50.5 6q-58 0 -108 -34q-11 -8 -23 -8q-15 0 -26 10.5t-11 24.5q0 19 14 31q38 36 65 88t27 108q0 19 -3 37h-97q-15 0 -25.5 10.5t-10.5 25.5t10.5 26t25.5 11
h79q-15 46 -22 74.5t-7 62.5q0 96 66.5 151t176.5 55q74 0 144 -29q30 -12 30 -40q0 -18 -12 -30t-30 -12q-7 0 -19 4q-59 19 -109 19q-85 0 -120.5 -33t-35.5 -81q0 -25 6 -52t18 -65l7 -24h167q15 0 26 -11t11 -26q0 -16 -10.5 -26t-26.5 -10h-151q2 -20 2 -31
q0 -77 -42 -143l25 1q26 0 46.5 -5t56.5 -16q28 -10 49.5 -15t44.5 -5q32 0 63 11q12 4 16 4q17 0 29 -11.5z" />
    <glyph glyph-name="currency" unicode="&#xa4;" horiz-adv-x="668" 
d="M76.5 92q-10.5 11 -10.5 26t11 26l65 65q-45 64 -45 140t45 140l-65 65q-11 11 -11 26t10.5 26t26.5 11q13 0 26 -11l66 -65q63 45 139 45t139 -45l66 65q13 11 26 11q16 0 26.5 -11t10.5 -26t-11 -26l-65 -65q45 -64 45 -140t-45 -140l65 -65q11 -11 11 -26t-10.5 -26
t-26.5 -11q-13 0 -26 11l-66 65q-63 -45 -139 -45t-139 45l-66 -65q-13 -11 -26 -11q-16 0 -26.5 11zM412 214q36 21 57 57t21 78t-21 78t-57 57t-78 21t-78 -21t-57 -57t-21 -78t21 -78t57 -57t78 -21t78 21z" />
    <glyph glyph-name="yen" unicode="&#xa5;" horiz-adv-x="658" 
d="M297.5 7q-13.5 13 -13.5 32v112h-141q-16 0 -26.5 10.5t-10.5 26.5t10.5 27t26.5 11h141v64h-141q-16 0 -26.5 10.5t-10.5 26.5t10.5 27t26.5 11h98l-168 274q-8 13 -8 26q0 21 14 34t34 13q27 0 43 -28l173 -303l173 303q16 28 43 28q20 0 34 -13t14 -34q0 -13 -8 -26
l-168 -274h98q16 0 26.5 -11t10.5 -27t-10.5 -26.5t-26.5 -10.5h-141v-64h141q16 0 26.5 -11t10.5 -27t-10.5 -26.5t-26.5 -10.5h-141v-112q0 -19 -13.5 -32t-31.5 -13t-31.5 13z" />
    <glyph glyph-name="brokenbar" unicode="&#xa6;" horiz-adv-x="253" 
d="M97.5 375.5q-11.5 11.5 -11.5 28.5v296q0 17 11.5 29t28.5 12t29 -12t12 -29v-296q0 -17 -12 -28.5t-29 -11.5t-28.5 11.5zM97.5 -184.5q-11.5 11.5 -11.5 28.5v296q0 17 11.5 29t28.5 12t29 -12t12 -29v-296q0 -17 -12 -28.5t-29 -11.5t-28.5 11.5z" />
    <glyph glyph-name="section" unicode="&#xa7;" horiz-adv-x="529" 
d="M63 -58q-7 4 -11.5 13.5t-4.5 19.5q0 17 11.5 28.5t27.5 11.5q9 0 21 -6q56 -28 139 -28q113 0 113 70q0 28 -28 45.5t-88 40.5q-58 22 -95.5 41t-64 52.5t-26.5 82.5q0 93 98 126q-64 47 -64 121q0 64 50.5 106t142.5 42q84 0 150 -27q12 -5 19.5 -15t7.5 -24
q0 -16 -12.5 -28t-28.5 -12q-7 0 -15 3q-51 19 -115 19q-113 0 -113 -70q0 -28 28 -45.5t88 -40.5q59 -23 96 -42t63.5 -52t26.5 -82q0 -95 -99 -127q65 -44 65 -120q0 -64 -50.5 -106t-142.5 -42q-118 0 -189 45zM395 286q0 25 -16.5 42.5t-41.5 29t-69 28.5q-10 4 -23.5 9
t-29.5 12q-74 -18 -74 -88q0 -25 16.5 -42.5t41 -29t68.5 -28.5l53 -21q75 18 75 88z" />
    <glyph glyph-name="dieresis" unicode="&#xa8;" horiz-adv-x="400" 
d="M80 590q-15 15 -15 36t15 36t36 15t36 -15t15 -36t-15 -36t-36 -15t-36 15zM248 590q-15 15 -15 36t15 36t36 15t36 -15t15 -36t-15 -36t-36 -15t-36 15z" />
    <glyph glyph-name="copyright" unicode="&#xa9;" horiz-adv-x="819" 
d="M230.5 39.5q-82.5 48.5 -131 130.5t-48.5 179t48.5 179t131 130.5t179.5 48.5t179.5 -48.5t131 -130.5t48.5 -179t-48.5 -179t-131 -130.5t-179.5 -48.5t-179.5 48.5zM563.5 84.5q70.5 41.5 112 111.5t41.5 153t-41.5 153t-112 111.5t-154.5 41.5q-83 0 -153 -41.5
t-111.5 -111.5t-41.5 -153t41.5 -153t111.5 -111.5t153 -41.5q84 0 154.5 41.5zM315.5 171q-43.5 25 -68 71t-24.5 107t24.5 107t68 71t100.5 25q58 0 101 -27.5t68 -77.5q3 -6 3 -13q0 -13 -9 -22.5t-23 -9.5q-19 0 -31 22q-38 67 -109 67q-60 0 -93 -41t-33 -101t33 -101
t93 -41q71 0 109 67q12 22 31 22q14 0 23 -9t9 -23q0 -7 -3 -13q-25 -50 -68 -77.5t-101 -27.5q-57 0 -100.5 25z" />
    <glyph glyph-name="ordfeminine" unicode="&#xaa;" horiz-adv-x="485" 
d="M115 368q-34 29 -34 78q0 51 40.5 79t120.5 28h76v2q0 45 -21 65t-64 20q-47 0 -91 -16q-6 -2 -10 -2q-13 0 -22.5 9.5t-9.5 22.5q0 10 6.5 18t16.5 12q63 24 121 24q72 0 109 -41t37 -98v-191q0 -15 -10.5 -25.5t-25.5 -10.5t-25.5 10.5t-10.5 25.5v9
q-18 -21 -48.5 -34.5t-72.5 -13.5q-48 0 -82 29zM273.5 417.5q25.5 13.5 44.5 33.5v48h-68q-47 0 -72 -11t-25 -36q0 -48 67 -48q28 0 53.5 13.5zM74.5 237.5q-8.5 8.5 -8.5 19.5t8.5 19.5t19.5 8.5h283q11 0 19.5 -8.5t8.5 -19.5t-8.5 -19.5t-19.5 -8.5h-283
q-11 0 -19.5 8.5z" />
    <glyph glyph-name="guillemotleft" unicode="&#xab;" horiz-adv-x="585" 
d="M236 31l-164 181q-18 20 -18 43t18 43l164 181q9 11 28 11q17 0 28 -11t11 -28q0 -15 -9 -26l-160 -170l160 -170q9 -10 9 -26q0 -17 -11 -28t-28 -11q-19 0 -28 11zM444 31l-164 181q-18 20 -18 43t18 43l164 181q9 11 28 11q17 0 28 -11t11 -28q0 -15 -9 -26l-160 -170
l160 -170q9 -10 9 -26q0 -17 -11 -28t-28 -11q-19 0 -28 11z" />
    <glyph glyph-name="logicalnot" unicode="&#xac;" horiz-adv-x="579" 
d="M431.5 178.5q-10.5 10.5 -10.5 26.5v106h-312q-15 0 -25.5 10.5t-10.5 25.5t10.5 25.5t25.5 10.5h345q17 0 29.5 -12.5t12.5 -29.5v-136q0 -16 -11 -26.5t-27 -10.5t-26.5 10.5z" />
    <glyph glyph-name="uni00AD" unicode="&#xad;" horiz-adv-x="408" 
d="M80.5 251.5q-11.5 11.5 -11.5 28.5t11.5 29t28.5 12h189q17 0 29 -12t12 -29t-12 -28.5t-29 -11.5h-189q-17 0 -28.5 11.5z" />
    <glyph glyph-name="registered" unicode="&#xae;" horiz-adv-x="819" 
d="M230.5 38.5q-82.5 48.5 -131 131t-48.5 179.5t48.5 179.5t131 131t179.5 48.5t179.5 -48.5t131 -131t48.5 -179.5t-48.5 -179.5t-131 -131t-179.5 -48.5t-179.5 48.5zM563.5 83.5q70.5 41.5 112 112t41.5 154.5q0 83 -41.5 153t-112 111.5t-154.5 41.5q-83 0 -153 -41.5
t-111.5 -111.5t-41.5 -153q0 -84 41.5 -154.5t111.5 -112t153 -41.5q84 0 154.5 41.5zM270.5 154.5q-9.5 9.5 -9.5 23.5v324q0 19 13 32.5t32 13.5h120q79 0 118 -33t39 -87q0 -36 -21 -60.5t-53 -36.5q28 -10 48.5 -40.5t20.5 -84.5v-27q0 -14 -10 -24t-24 -10t-24 10
t-10 24v18q0 43 -12.5 72.5t-60.5 29.5h-109v-121q0 -14 -10 -23.5t-24 -9.5t-23.5 9.5zM423 358q43 0 68.5 17.5t25.5 50.5q0 31 -22 47.5t-74 16.5h-93v-132h95z" />
    <glyph glyph-name="macron" unicode="&#xaf;" horiz-adv-x="312" 
d="M61.5 596.5q-8.5 8.5 -8.5 21.5t8.5 21.5t21.5 8.5h234q13 0 21.5 -8.5t8.5 -21.5t-8.5 -21.5t-21.5 -8.5h-234q-13 0 -21.5 8.5z" />
    <glyph glyph-name="degree" unicode="&#xb0;" horiz-adv-x="378" 
d="M120.5 452.5q-31.5 18.5 -50 50t-18.5 68.5t18.5 68.5t50 50t68.5 18.5t68.5 -18.5t50 -50t18.5 -68.5t-18.5 -68.5t-50 -50t-68.5 -18.5t-68.5 18.5zM249 511q25 25 25 60t-25 60t-60 25t-60 -25t-25 -60t25 -60t60 -25t60 25z" />
    <glyph glyph-name="plusminus" unicode="&#xb1;" horiz-adv-x="606" 
d="M275.5 156.5q-11.5 11.5 -11.5 27.5v158h-164q-16 0 -27 11t-11 27q0 17 11 28t27 11h164v158q0 17 11.5 28t27.5 11q17 0 28 -11t11 -28v-158h163q17 0 28 -11t11 -28q0 -16 -11 -27t-28 -11h-163v-158q0 -16 -11 -27.5t-28 -11.5q-16 0 -27.5 11.5zM73 11
q-11 11 -11 27q0 17 11 28t27 11h405q17 0 28 -11t11 -28q0 -16 -11 -27t-28 -11h-405q-16 0 -27 11z" />
    <glyph glyph-name="uni00B2" unicode="&#xb2;" horiz-adv-x="370" 
d="M49 322q-11 12 -11 28q0 41 32 71t93 69q50 32 73.5 52.5t23.5 45.5q0 27 -19 43.5t-59 16.5q-55 0 -95 -22q-6 -3 -13 -3q-12 0 -20 7.5t-8 20.5q0 17 14 25q55 33 130 33q58 0 95.5 -33.5t37.5 -83.5q0 -34 -20.5 -63.5t-48.5 -51t-72 -50.5q-31 -20 -48.5 -33
t-26.5 -25h190q13 0 21.5 -8.5t8.5 -21.5t-8.5 -21t-21.5 -8h-220q-17 0 -28 12z" />
    <glyph glyph-name="uni00B3" unicode="&#xb3;" horiz-adv-x="370" 
d="M53 329q-7 4 -12 11t-5 16q0 12 9 20.5t20 8.5q3 0 11 -2q27 -8 46.5 -12.5t44.5 -4.5q42 0 67 13t25 39q0 62 -112 62h-11q-13 0 -21.5 8.5t-8.5 21.5t8.5 21.5t21.5 8.5h5q47 0 76 13.5t29 44.5q0 27 -23 38.5t-55 11.5q-46 0 -86 -19q-6 -3 -13 -3q-11 0 -19.5 7.5
t-8.5 19.5q0 16 19 26q56 30 112 30q69 0 102.5 -29.5t33.5 -76.5q0 -36 -18 -58t-44 -32q32 -10 54 -33.5t22 -63.5q0 -48 -35.5 -80t-110.5 -32q-78 0 -123 25z" />
    <glyph glyph-name="acute" unicode="&#xb4;" horiz-adv-x="240" 
d="M180.5 574.5q-7.5 7.5 -7.5 19.5q0 9 7 19l51 90q10 19 33 19q16 0 26.5 -10t10.5 -27q0 -14 -10 -25l-69 -82q-9 -11 -22 -11q-12 0 -19.5 7.5z" />
    <glyph glyph-name="uni00B5" unicode="&#xb5;" horiz-adv-x="604" 
d="M97 -205q-13 13 -13 32v643q0 19 13.5 32t32.5 13t32 -13t13 -32v-274q0 -122 110 -122q50 0 89.5 26t74.5 70v300q0 19 13.5 32t32.5 13t32 -13t13 -32v-429q0 -19 -13 -32.5t-32 -13.5t-32.5 13.5t-13.5 32.5v41q-40 -43 -80.5 -67.5t-100.5 -24.5q-53 0 -93 27v-190
q0 -19 -13.5 -32t-32.5 -13t-32 13z" />
    <glyph glyph-name="paragraph" unicode="&#xb6;" horiz-adv-x="732" 
d="M343.5 -212.5q-11.5 11.5 -11.5 28.5v368h-36q-70 0 -129 34.5t-93.5 93.5t-34.5 129t34.5 129t93.5 93.5t129 34.5h352q17 0 28.5 -11.5t11.5 -28.5q0 -16 -11.5 -27.5t-28.5 -11.5h-46v-803q0 -17 -11.5 -28.5t-28.5 -11.5q-16 0 -27.5 11.5t-11.5 28.5v803h-112v-803
q0 -17 -11.5 -28.5t-28.5 -11.5q-16 0 -27.5 11.5z" />
    <glyph glyph-name="periodcentered" unicode="&#xb7;" horiz-adv-x="260" 
d="M85.5 242.5q-16.5 16.5 -16.5 39.5v6q0 23 16.5 39.5t39.5 16.5h10q23 0 39.5 -16.5t16.5 -39.5v-6q0 -23 -16.5 -39.5t-39.5 -16.5h-10q-23 0 -39.5 16.5z" />
    <glyph glyph-name="cedilla" unicode="&#xb8;" horiz-adv-x="307" 
d="M97 -195q-4 3 -7.5 7.5t-3.5 9.5q0 8 5 14t14 6q4 0 10 -3q31 -17 59 -17q57 0 57 46q0 15 -10 23t-26 8q-22 0 -44 -11q-6 -3 -10 -3q-7 0 -12.5 4.5t-5.5 11.5q0 8 4 14l64 102h42l-46 -80q16 4 34 4q34 0 55.5 -19.5t21.5 -50.5q0 -46 -28.5 -69t-82.5 -23
q-48 0 -90 26z" />
    <glyph glyph-name="uni00B9" unicode="&#xb9;" horiz-adv-x="370" 
d="M87 318q-8 8 -8 21t8 21.5t21 8.5h60v265l-45 -22q-10 -4 -15 -4q-12 0 -21 8.5t-9 21.5q0 8 5 16t14 12l72 37q10 5 20 5q19 0 31 -12.5t12 -30.5v-296h50q13 0 21.5 -8.5t8.5 -21.5t-8.5 -21t-21.5 -8h-174q-13 0 -21 8z" />
    <glyph glyph-name="ordmasculine" unicode="&#xba;" horiz-adv-x="514" 
d="M127.5 390q-48.5 51 -48.5 134t48.5 133.5t129.5 50.5t129.5 -50.5t48.5 -133.5t-48.5 -134t-129.5 -51t-129.5 51zM331 433.5q32 30.5 32 91.5q0 60 -32 90t-74 30t-74 -30t-32 -90q0 -61 32 -91.5t74 -30.5t74 30.5zM78.5 237.5q-8.5 8.5 -8.5 19.5t8.5 19.5t19.5 8.5
h318q11 0 19.5 -8.5t8.5 -19.5t-8.5 -19.5t-19.5 -8.5h-318q-11 0 -19.5 8.5z" />
    <glyph glyph-name="guillemotright" unicode="&#xbb;" horiz-adv-x="585" 
d="M85 31q-11 11 -11 28q0 16 9 26l160 170l-160 170q-9 11 -9 26q0 17 11 28t28 11q19 0 28 -11l164 -181q18 -20 18 -43t-18 -43l-164 -181q-9 -11 -28 -11q-17 0 -28 11zM293 31q-11 11 -11 28q0 16 9 26l160 170l-160 170q-9 11 -9 26q0 17 11 28t28 11q19 0 28 -11
l164 -181q18 -20 18 -43t-18 -43l-164 -181q-9 -11 -28 -11q-17 0 -28 11z" />
    <glyph glyph-name="onequarter" unicode="&#xbc;" horiz-adv-x="891" 
d="M87 318q-8 8 -8 21t8 21.5t21 8.5h60v265l-45 -22q-10 -4 -15 -4q-12 0 -21 8.5t-9 21.5q0 8 5 16t14 12l72 37q10 5 20 5q19 0 31 -12.5t12 -30.5v-296h50q13 0 21.5 -8.5t8.5 -21.5t-8.5 -21t-21.5 -8h-174q-13 0 -21 8zM235 -14.5q-10 9.5 -10 24.5q0 8 5 18l414 682
q8 14 28 14q14 0 24 -9.5t10 -24.5q0 -8 -5 -18l-414 -682q-8 -14 -28 -14q-14 0 -24 9.5zM746.5 4.5q-9.5 9.5 -9.5 22.5v69h-156q-17 0 -29.5 12.5t-12.5 29.5q0 15 11 29l165 211q17 21 36 21h8q18 0 30 -12.5t12 -29.5v-202h36q13 0 21.5 -8.5t8.5 -21.5t-8.5 -21
t-21.5 -8h-36v-69q0 -13 -9 -22.5t-23 -9.5q-13 0 -22.5 9.5zM610 155h127v165z" />
    <glyph glyph-name="onehalf" unicode="&#xbd;" horiz-adv-x="931" 
d="M87 318q-8 8 -8 21t8 21.5t21 8.5h60v265l-45 -22q-10 -4 -15 -4q-12 0 -21 8.5t-9 21.5q0 8 5 16t14 12l72 37q10 5 20 5q19 0 31 -12.5t12 -30.5v-296h50q13 0 21.5 -8.5t8.5 -21.5t-8.5 -21t-21.5 -8h-174q-13 0 -21 8zM235 -14.5q-10 9.5 -10 24.5q0 8 5 18l414 682
q8 14 28 14q14 0 24 -9.5t10 -24.5q0 -8 -5 -18l-414 -682q-8 -14 -28 -14q-14 0 -24 9.5zM610 12q-11 12 -11 28q0 41 32 71t93 69q50 32 73.5 52.5t23.5 45.5q0 27 -19 43.5t-59 16.5q-55 0 -95 -22q-6 -3 -13 -3q-12 0 -20 7.5t-8 20.5q0 17 14 25q55 33 130 33
q58 0 95.5 -33.5t37.5 -83.5q0 -34 -20.5 -63.5t-48.5 -51t-72 -50.5q-31 -20 -48.5 -33t-26.5 -25h190q13 0 21.5 -8.5t8.5 -21.5t-8.5 -21t-21.5 -8h-220q-17 0 -28 12z" />
    <glyph glyph-name="threequarters" unicode="&#xbe;" horiz-adv-x="891" 
d="M53 329q-7 4 -12 11t-5 16q0 12 9 20.5t20 8.5q3 0 11 -2q27 -8 46.5 -12.5t44.5 -4.5q42 0 67 13t25 39q0 62 -112 62h-11q-13 0 -21.5 8.5t-8.5 21.5t8.5 21.5t21.5 8.5h5q47 0 76 13.5t29 44.5q0 27 -23 38.5t-55 11.5q-46 0 -86 -19q-6 -3 -13 -3q-11 0 -19.5 7.5
t-8.5 19.5q0 16 19 26q56 30 112 30q69 0 102.5 -29.5t33.5 -76.5q0 -36 -18 -58t-44 -32q32 -10 54 -33.5t22 -63.5q0 -48 -35.5 -80t-110.5 -32q-78 0 -123 25zM235 -14.5q-10 9.5 -10 24.5q0 8 5 18l414 682q8 14 28 14q14 0 24 -9.5t10 -24.5q0 -8 -5 -18l-414 -682
q-8 -14 -28 -14q-14 0 -24 9.5zM746.5 4.5q-9.5 9.5 -9.5 22.5v69h-156q-17 0 -29.5 12.5t-12.5 29.5q0 15 11 29l165 211q17 21 36 21h8q18 0 30 -12.5t12 -29.5v-202h36q13 0 21.5 -8.5t8.5 -21.5t-8.5 -21t-21.5 -8h-36v-69q0 -13 -9 -22.5t-23 -9.5q-13 0 -22.5 9.5z
M610 155h127v165z" />
    <glyph glyph-name="questiondown" unicode="&#xbf;" horiz-adv-x="488" 
d="M230.5 412.5q-17.5 17.5 -17.5 41.5q0 25 17.5 42.5t42.5 17.5q24 0 41.5 -17.5t17.5 -42.5q0 -24 -17.5 -41.5t-41.5 -17.5q-25 0 -42.5 17.5zM101.5 -147q-61.5 51 -61.5 138q0 39 14 68.5t34 50t53 46.5q43 34 64.5 61.5t21.5 67.5q0 16 13 27.5t31 11.5
q19 0 31.5 -11.5t12.5 -27.5q0 -45 -16 -79t-37.5 -56.5t-57.5 -51.5q-38 -30 -56 -52t-18 -50q0 -109 143 -109q35 0 68.5 8.5t59.5 24.5q12 8 25 8q17 0 28.5 -12t11.5 -28q0 -23 -25 -38q-41 -26 -83 -37t-93 -11q-102 0 -163.5 51z" />
    <glyph glyph-name="Agrave" unicode="&#xc0;" horiz-adv-x="746" 
d="M62.5 8q-12.5 13 -12.5 32q0 8 5 20l255 602q8 18 22.5 29.5t35.5 11.5h10q21 0 35.5 -11.5t22.5 -29.5l255 -602q5 -12 5 -20q0 -19 -12.5 -32t-32.5 -13q-14 0 -25.5 7.5t-17.5 20.5l-65 156h-340l-65 -156q-6 -13 -17.5 -20.5t-25.5 -7.5q-20 0 -32.5 13zM238 262h270
l-135 325zM351 750l-69 82q-10 11 -10 25q0 17 10 27t27 10q23 0 33 -19l51 -90q7 -10 7 -19q0 -12 -7.5 -19.5t-19.5 -7.5q-13 0 -22 11z" />
    <glyph glyph-name="Aacute" unicode="&#xc1;" horiz-adv-x="746" 
d="M62.5 8q-12.5 13 -12.5 32q0 8 5 20l255 602q8 18 22.5 29.5t35.5 11.5h10q21 0 35.5 -11.5t22.5 -29.5l255 -602q5 -12 5 -20q0 -19 -12.5 -32t-32.5 -13q-14 0 -25.5 7.5t-17.5 20.5l-65 156h-340l-65 -156q-6 -13 -17.5 -20.5t-25.5 -7.5q-20 0 -32.5 13zM238 262h270
l-135 325zM353.5 746.5q-7.5 7.5 -7.5 19.5q0 9 7 19l51 90q10 19 33 19q16 0 26.5 -10t10.5 -27q0 -14 -10 -25l-69 -82q-9 -11 -22 -11q-12 0 -19.5 7.5z" />
    <glyph glyph-name="Acircumflex" unicode="&#xc2;" horiz-adv-x="746" 
d="M62.5 8q-12.5 13 -12.5 32q0 8 5 20l255 602q8 18 22.5 29.5t35.5 11.5h10q21 0 35.5 -11.5t22.5 -29.5l255 -602q5 -12 5 -20q0 -19 -12.5 -32t-32.5 -13q-14 0 -25.5 7.5t-17.5 20.5l-65 156h-340l-65 -156q-6 -13 -17.5 -20.5t-25.5 -7.5q-20 0 -32.5 13zM238 262h270
l-135 325zM246 747.5q-9 9.5 -8 20.5q0 11 8 19l68 70q9 10 18 15t22 5h38q13 0 22 -5t18 -15l68 -70q8 -8 8 -19q1 -11 -8 -20.5t-22 -9.5q-11 0 -18 7l-87 74l-87 -74q-7 -7 -18 -7q-13 0 -22 9.5z" />
    <glyph glyph-name="Atilde" unicode="&#xc3;" horiz-adv-x="746" 
d="M62.5 8q-12.5 13 -12.5 32q0 8 5 20l255 602q8 18 22.5 29.5t35.5 11.5h10q21 0 35.5 -11.5t22.5 -29.5l255 -602q5 -12 5 -20q0 -19 -12.5 -32t-32.5 -13q-14 0 -25.5 7.5t-17.5 20.5l-65 156h-340l-65 -156q-6 -13 -17.5 -20.5t-25.5 -7.5q-20 0 -32.5 13zM238 262h270
l-135 325zM219 749.5q-7 6.5 -7 16.5q0 21 10.5 43t29.5 37t44 15q20 0 37.5 -6t42.5 -18q23 -11 39.5 -17t34.5 -6q15 0 23.5 7t13.5 20q8 21 25 21q10 0 16 -6.5t7 -15.5q0 -35 -24 -65t-60 -30q-20 0 -38 6.5t-44 18.5q-23 11 -39 17t-33 6q-26 0 -39 -32q-6 -18 -23 -18
q-9 0 -16 6.5z" />
    <glyph glyph-name="Adieresis" unicode="&#xc4;" horiz-adv-x="746" 
d="M62.5 8q-12.5 13 -12.5 32q0 8 5 20l255 602q8 18 22.5 29.5t35.5 11.5h10q21 0 35.5 -11.5t22.5 -29.5l255 -602q5 -12 5 -20q0 -19 -12.5 -32t-32.5 -13q-14 0 -25.5 7.5t-17.5 20.5l-65 156h-340l-65 -156q-6 -13 -17.5 -20.5t-25.5 -7.5q-20 0 -32.5 13zM238 262h270
l-135 325zM253 762q-15 15 -15 36t15 36t36 15t36 -15t15 -36t-15 -36t-36 -15t-36 15zM421 762q-15 15 -15 36t15 36t36 15t36 -15t15 -36t-15 -36t-36 -15t-36 15z" />
    <glyph glyph-name="Aring" unicode="&#xc5;" horiz-adv-x="746" 
d="M62.5 8q-12.5 13 -12.5 32q0 8 5 20l255 602q8 18 22.5 29.5t35.5 11.5h10q21 0 35.5 -11.5t22.5 -29.5l255 -602q5 -12 5 -20q0 -19 -12.5 -32t-32.5 -13q-14 0 -25.5 7.5t-17.5 20.5l-65 156h-340l-65 -156q-6 -13 -17.5 -20.5t-25.5 -7.5q-20 0 -32.5 13zM238 262h270
l-135 325zM306.5 750.5q-27.5 27.5 -27.5 66.5t27.5 66.5t66.5 27.5t66.5 -27.5t27.5 -66.5t-27.5 -66.5t-66.5 -27.5t-66.5 27.5zM407.5 782.5q14.5 14.5 14.5 34.5t-14.5 34.5t-34.5 14.5t-34.5 -14.5t-14.5 -34.5t14.5 -34.5t34.5 -14.5t34.5 14.5z" />
    <glyph glyph-name="AE" unicode="&#xc6;" horiz-adv-x="1040" 
d="M15.5 8q-13.5 13 -13.5 32q0 13 10 28l399 605q8 11 20 18t26 7h488q18 0 30.5 -12.5t12.5 -30.5t-12.5 -30t-30.5 -12h-355v-221h319q18 0 30.5 -12.5t12.5 -30.5t-12.5 -30t-30.5 -12h-319v-222h355q18 0 30.5 -12.5t12.5 -30.5t-12.5 -30t-30.5 -12h-401q-19 0 -32 13
t-13 32v134h-308l-102 -158q-17 -26 -41 -26q-19 0 -32.5 13zM245 262h254v351h-25z" />
    <glyph glyph-name="Ccedilla" unicode="&#xc7;" horiz-adv-x="695" 
d="M644 117q11 -11 11 -27q0 -26 -22 -38q-51 -29 -103 -45t-117 -17l-31 -53q16 4 34 4q34 0 55.5 -19.5t21.5 -50.5q0 -46 -28.5 -69t-82.5 -23q-48 0 -90 26q-4 3 -7.5 7.5t-3.5 9.5q0 8 5 14t14 6q4 0 10 -3q31 -17 59 -17q57 0 57 46q0 15 -10 23t-26 8q-22 0 -44 -11
q-6 -3 -10 -3q-7 0 -12.5 4.5t-5.5 11.5q0 8 4 14l48 76q-91 8 -162.5 53.5t-112 123.5t-40.5 181q0 109 45.5 190.5t125 125t179.5 43.5q68 0 121.5 -16t106.5 -46q22 -12 22 -38q0 -15 -11 -26.5t-29 -11.5q-10 0 -18 4q-44 23 -86 35t-97 12q-86 0 -146.5 -35.5t-91 -97
t-30.5 -139.5t30.5 -139.5t91 -97t146.5 -35.5q55 0 97 12t86 35q8 4 18 4q18 0 29 -11z" />
    <glyph glyph-name="Egrave" unicode="&#xc8;" horiz-adv-x="638" 
d="M110 13q-13 13 -13 32v607q0 19 13 32.5t32 13.5h401q18 0 30.5 -12.5t12.5 -30.5t-12.5 -30t-30.5 -12h-355v-221h319q18 0 30.5 -12.5t12.5 -30.5t-12.5 -30t-30.5 -12h-319v-222h355q18 0 30.5 -12.5t12.5 -30.5t-12.5 -30t-30.5 -12h-401q-19 0 -32 13zM320 750
l-69 82q-10 11 -10 25q0 17 10 27t27 10q23 0 33 -19l51 -90q7 -10 7 -19q0 -12 -7.5 -19.5t-19.5 -7.5q-13 0 -22 11z" />
    <glyph glyph-name="Eacute" unicode="&#xc9;" horiz-adv-x="638" 
d="M110 13q-13 13 -13 32v607q0 19 13 32.5t32 13.5h401q18 0 30.5 -12.5t12.5 -30.5t-12.5 -30t-30.5 -12h-355v-221h319q18 0 30.5 -12.5t12.5 -30.5t-12.5 -30t-30.5 -12h-319v-222h355q18 0 30.5 -12.5t12.5 -30.5t-12.5 -30t-30.5 -12h-401q-19 0 -32 13zM322.5 746.5
q-7.5 7.5 -7.5 19.5q0 9 7 19l51 90q10 19 33 19q16 0 26.5 -10t10.5 -27q0 -14 -10 -25l-69 -82q-9 -11 -22 -11q-12 0 -19.5 7.5z" />
    <glyph glyph-name="Ecircumflex" unicode="&#xca;" horiz-adv-x="638" 
d="M110 13q-13 13 -13 32v607q0 19 13 32.5t32 13.5h401q18 0 30.5 -12.5t12.5 -30.5t-12.5 -30t-30.5 -12h-355v-221h319q18 0 30.5 -12.5t12.5 -30.5t-12.5 -30t-30.5 -12h-319v-222h355q18 0 30.5 -12.5t12.5 -30.5t-12.5 -30t-30.5 -12h-401q-19 0 -32 13zM215 747.5
q-9 9.5 -8 20.5q0 11 8 19l68 70q9 10 18 15t22 5h38q13 0 22 -5t18 -15l68 -70q8 -8 8 -19q1 -11 -8 -20.5t-22 -9.5q-11 0 -18 7l-87 74l-87 -74q-7 -7 -18 -7q-13 0 -22 9.5z" />
    <glyph glyph-name="Edieresis" unicode="&#xcb;" horiz-adv-x="638" 
d="M110 13q-13 13 -13 32v607q0 19 13 32.5t32 13.5h401q18 0 30.5 -12.5t12.5 -30.5t-12.5 -30t-30.5 -12h-355v-221h319q18 0 30.5 -12.5t12.5 -30.5t-12.5 -30t-30.5 -12h-319v-222h355q18 0 30.5 -12.5t12.5 -30.5t-12.5 -30t-30.5 -12h-401q-19 0 -32 13zM222 762
q-15 15 -15 36t15 36t36 15t36 -15t15 -36t-15 -36t-36 -15t-36 15zM390 762q-15 15 -15 36t15 36t36 15t36 -15t15 -36t-15 -36t-36 -15t-36 15z" />
    <glyph glyph-name="Igrave" unicode="&#xcc;" horiz-adv-x="285" 
d="M110 8q-13 13 -13 32v617q0 19 13 32.5t32 13.5t32.5 -13.5t13.5 -32.5v-617q0 -19 -13.5 -32t-32.5 -13t-32 13zM121 750l-69 82q-10 11 -10 25q0 17 10 27t27 10q23 0 33 -19l51 -90q7 -10 7 -19q0 -12 -7.5 -19.5t-19.5 -7.5q-13 0 -22 11z" />
    <glyph glyph-name="Iacute" unicode="&#xcd;" horiz-adv-x="285" 
d="M110 8q-13 13 -13 32v617q0 19 13 32.5t32 13.5t32.5 -13.5t13.5 -32.5v-617q0 -19 -13.5 -32t-32.5 -13t-32 13zM123.5 746.5q-7.5 7.5 -7.5 19.5q0 9 7 19l51 90q10 19 33 19q16 0 26.5 -10t10.5 -27q0 -14 -10 -25l-69 -82q-9 -11 -22 -11q-12 0 -19.5 7.5z" />
    <glyph glyph-name="Icircumflex" unicode="&#xce;" horiz-adv-x="285" 
d="M110 8q-13 13 -13 32v617q0 19 13 32.5t32 13.5t32.5 -13.5t13.5 -32.5v-617q0 -19 -13.5 -32t-32.5 -13t-32 13zM16 747.5q-9 9.5 -8 20.5q0 11 8 19l68 70q9 10 18 15t22 5h38q13 0 22 -5t18 -15l68 -70q8 -8 8 -19q1 -11 -8 -20.5t-22 -9.5q-11 0 -18 7l-87 74
l-87 -74q-7 -7 -18 -7q-13 0 -22 9.5z" />
    <glyph glyph-name="Idieresis" unicode="&#xcf;" horiz-adv-x="285" 
d="M110 8q-13 13 -13 32v617q0 19 13 32.5t32 13.5t32.5 -13.5t13.5 -32.5v-617q0 -19 -13.5 -32t-32.5 -13t-32 13zM23 762q-15 15 -15 36t15 36t36 15t36 -15t15 -36t-15 -36t-36 -15t-36 15zM191 762q-15 15 -15 36t15 36t36 15t36 -15t15 -36t-15 -36t-36 -15t-36 15z
" />
    <glyph glyph-name="Eth" unicode="&#xd0;" horiz-adv-x="756" 
d="M115 13q-13 13 -13 32v270h-54q-14 0 -23.5 9.5t-9.5 23.5t9.5 24t23.5 10h54v270q0 19 13 32.5t32 13.5h201q114 0 193.5 -50.5t119.5 -130.5t40 -168t-40 -168t-119.5 -130.5t-193.5 -50.5h-201q-19 0 -32 13zM337 85q82 0 144 33.5t96 93t34 137.5t-34 137.5t-96 93
t-144 33.5h-144v-231h117q14 0 24 -10t10 -24t-10 -23.5t-24 -9.5h-117v-230h144z" />
    <glyph glyph-name="Ntilde" unicode="&#xd1;" horiz-adv-x="803" 
d="M110 8q-13 13 -13 32v597q0 27 19 46.5t46 19.5h13q32 0 55 -30l385 -556v540q0 19 13 32.5t32 13.5t32.5 -13.5t13.5 -32.5v-597q0 -27 -19.5 -46t-46.5 -19h-12q-16 0 -30 7.5t-23 19.5l-387 559v-541q0 -19 -13.5 -32t-32.5 -13t-32 13zM248 749.5q-7 6.5 -7 16.5
q0 21 10.5 43t29.5 37t44 15q20 0 37.5 -6t42.5 -18q23 -11 39.5 -17t34.5 -6q15 0 23.5 7t13.5 20q8 21 25 21q10 0 16 -6.5t7 -15.5q0 -35 -24 -65t-60 -30q-20 0 -38 6.5t-44 18.5q-23 11 -39 17t-33 6q-26 0 -39 -32q-6 -18 -23 -18q-9 0 -16 6.5z" />
    <glyph glyph-name="Ograve" unicode="&#xd2;" horiz-adv-x="812" 
d="M222 36q-79 46 -122 127t-45 186q2 105 45 186t122 127t184 46t183.5 -46t122 -127.5t45.5 -185.5q-2 -104 -45.5 -185.5t-122 -127.5t-183.5 -46t-184 46zM545 111q59 36 90 98t31 140t-31 140t-90 98t-139 36q-81 0 -139.5 -36t-89.5 -98t-31 -140t31 -140t89.5 -98
t139.5 -36q80 0 139 36zM384 750l-69 82q-10 11 -10 25q0 17 10 27t27 10q23 0 33 -19l51 -90q7 -10 7 -19q0 -12 -7.5 -19.5t-19.5 -7.5q-13 0 -22 11z" />
    <glyph glyph-name="Oacute" unicode="&#xd3;" horiz-adv-x="812" 
d="M222 36q-79 46 -122 127t-45 186q2 105 45 186t122 127t184 46t183.5 -46t122 -127.5t45.5 -185.5q-2 -104 -45.5 -185.5t-122 -127.5t-183.5 -46t-184 46zM545 111q59 36 90 98t31 140t-31 140t-90 98t-139 36q-81 0 -139.5 -36t-89.5 -98t-31 -140t31 -140t89.5 -98
t139.5 -36q80 0 139 36zM386.5 746.5q-7.5 7.5 -7.5 19.5q0 9 7 19l51 90q10 19 33 19q16 0 26.5 -10t10.5 -27q0 -14 -10 -25l-69 -82q-9 -11 -22 -11q-12 0 -19.5 7.5z" />
    <glyph glyph-name="Ocircumflex" unicode="&#xd4;" horiz-adv-x="812" 
d="M222 36q-79 46 -122 127t-45 186q2 105 45 186t122 127t184 46t183.5 -46t122 -127.5t45.5 -185.5q-2 -104 -45.5 -185.5t-122 -127.5t-183.5 -46t-184 46zM545 111q59 36 90 98t31 140t-31 140t-90 98t-139 36q-81 0 -139.5 -36t-89.5 -98t-31 -140t31 -140t89.5 -98
t139.5 -36q80 0 139 36zM279 747.5q-9 9.5 -8 20.5q0 11 8 19l68 70q9 10 18 15t22 5h38q13 0 22 -5t18 -15l68 -70q8 -8 8 -19q1 -11 -8 -20.5t-22 -9.5q-11 0 -18 7l-87 74l-87 -74q-7 -7 -18 -7q-13 0 -22 9.5z" />
    <glyph glyph-name="Otilde" unicode="&#xd5;" horiz-adv-x="812" 
d="M222 36q-79 46 -122 127t-45 186q2 105 45 186t122 127t184 46t183.5 -46t122 -127.5t45.5 -185.5q-2 -104 -45.5 -185.5t-122 -127.5t-183.5 -46t-184 46zM545 111q59 36 90 98t31 140t-31 140t-90 98t-139 36q-81 0 -139.5 -36t-89.5 -98t-31 -140t31 -140t89.5 -98
t139.5 -36q80 0 139 36zM252 749.5q-7 6.5 -7 16.5q0 21 10.5 43t29.5 37t44 15q20 0 37.5 -6t42.5 -18q23 -11 39.5 -17t34.5 -6q15 0 23.5 7t13.5 20q8 21 25 21q10 0 16 -6.5t7 -15.5q0 -35 -24 -65t-60 -30q-20 0 -38 6.5t-44 18.5q-23 11 -39 17t-33 6q-26 0 -39 -32
q-6 -18 -23 -18q-9 0 -16 6.5z" />
    <glyph glyph-name="Odieresis" unicode="&#xd6;" horiz-adv-x="812" 
d="M222 36q-79 46 -122 127t-45 186q2 105 45 186t122 127t184 46t183.5 -46t122 -127.5t45.5 -185.5q-2 -104 -45.5 -185.5t-122 -127.5t-183.5 -46t-184 46zM545 111q59 36 90 98t31 140t-31 140t-90 98t-139 36q-81 0 -139.5 -36t-89.5 -98t-31 -140t31 -140t89.5 -98
t139.5 -36q80 0 139 36zM286 762q-15 15 -15 36t15 36t36 15t36 -15t15 -36t-15 -36t-36 -15t-36 15zM454 762q-15 15 -15 36t15 36t36 15t36 -15t15 -36t-15 -36t-36 -15t-36 15z" />
    <glyph glyph-name="multiply" unicode="&#xd7;" horiz-adv-x="563" 
d="M70 47.5q-11 11.5 -11 26.5t12 27l157 157l-157 157q-12 12 -12 27t11 26.5t27 11.5q15 0 27 -12l157 -157l157 157q12 12 27 12q16 0 27 -11.5t11 -26.5t-12 -27l-157 -157l157 -157q12 -12 12 -27t-11 -26.5t-27 -11.5q-15 0 -27 12l-157 157l-157 -157
q-12 -12 -27 -12q-16 0 -27 11.5z" />
    <glyph glyph-name="Oslash" unicode="&#xd8;" horiz-adv-x="812" 
d="M140 -23q-7 7 -7 17q0 8 6 17l39 55q-58 48 -90 121t-33 162q2 105 45 186t122 127t184 46q106 0 188 -49l40 58q7 10 21 10q11 0 18 -7t7 -17q0 -8 -6 -17l-39 -56q57 -48 88.5 -120.5t33.5 -160.5q-2 -104 -45.5 -185.5t-122 -127.5t-183.5 -46q-106 0 -187 47l-40 -57
q-7 -10 -21 -10q-11 0 -18 7zM543 588q-60 35 -137 35q-81 0 -139.5 -36t-89.5 -98t-31 -140q0 -65 21.5 -119t61.5 -91zM545 111q59 36 90 98t31 140q0 63 -21 117.5t-61 91.5l-315 -449q59 -34 137 -34q80 0 139 36z" />
    <glyph glyph-name="Ugrave" unicode="&#xd9;" horiz-adv-x="758" 
d="M242 20q-66 30 -108 91.5t-42 150.5v395q0 19 13 32.5t32 13.5t32.5 -13.5t13.5 -32.5v-398q0 -60 27.5 -102t72.5 -63t96 -21t96 21t72.5 63t27.5 102v398q0 19 13 32.5t32 13.5t32.5 -13.5t13.5 -32.5v-395q0 -89 -42 -150.5t-108 -91.5t-137 -30t-137 30zM357 750
l-69 82q-10 11 -10 25q0 17 10 27t27 10q23 0 33 -19l51 -90q7 -10 7 -19q0 -12 -7.5 -19.5t-19.5 -7.5q-13 0 -22 11z" />
    <glyph glyph-name="Uacute" unicode="&#xda;" horiz-adv-x="758" 
d="M242 20q-66 30 -108 91.5t-42 150.5v395q0 19 13 32.5t32 13.5t32.5 -13.5t13.5 -32.5v-398q0 -60 27.5 -102t72.5 -63t96 -21t96 21t72.5 63t27.5 102v398q0 19 13 32.5t32 13.5t32.5 -13.5t13.5 -32.5v-395q0 -89 -42 -150.5t-108 -91.5t-137 -30t-137 30zM359.5 746.5
q-7.5 7.5 -7.5 19.5q0 9 7 19l51 90q10 19 33 19q16 0 26.5 -10t10.5 -27q0 -14 -10 -25l-69 -82q-9 -11 -22 -11q-12 0 -19.5 7.5z" />
    <glyph glyph-name="Ucircumflex" unicode="&#xdb;" horiz-adv-x="758" 
d="M242 20q-66 30 -108 91.5t-42 150.5v395q0 19 13 32.5t32 13.5t32.5 -13.5t13.5 -32.5v-398q0 -60 27.5 -102t72.5 -63t96 -21t96 21t72.5 63t27.5 102v398q0 19 13 32.5t32 13.5t32.5 -13.5t13.5 -32.5v-395q0 -89 -42 -150.5t-108 -91.5t-137 -30t-137 30zM252 747.5
q-9 9.5 -8 20.5q0 11 8 19l68 70q9 10 18 15t22 5h38q13 0 22 -5t18 -15l68 -70q8 -8 8 -19q1 -11 -8 -20.5t-22 -9.5q-11 0 -18 7l-87 74l-87 -74q-7 -7 -18 -7q-13 0 -22 9.5z" />
    <glyph glyph-name="Udieresis" unicode="&#xdc;" horiz-adv-x="758" 
d="M242 20q-66 30 -108 91.5t-42 150.5v395q0 19 13 32.5t32 13.5t32.5 -13.5t13.5 -32.5v-398q0 -60 27.5 -102t72.5 -63t96 -21t96 21t72.5 63t27.5 102v398q0 19 13 32.5t32 13.5t32.5 -13.5t13.5 -32.5v-395q0 -89 -42 -150.5t-108 -91.5t-137 -30t-137 30zM259 762
q-15 15 -15 36t15 36t36 15t36 -15t15 -36t-15 -36t-36 -15t-36 15zM427 762q-15 15 -15 36t15 36t36 15t36 -15t15 -36t-15 -36t-36 -15t-36 15z" />
    <glyph glyph-name="Yacute" unicode="&#xdd;" horiz-adv-x="639" 
d="M287.5 8q-13.5 13 -13.5 32v255l-239 335q-8 13 -8 27q0 19 12.5 32.5t31.5 13.5q25 0 40 -23l209 -304l209 304q15 23 40 23q19 0 32 -13.5t12 -32.5q0 -14 -8 -27l-240 -335v-255q0 -19 -13 -32t-32 -13t-32.5 13zM300.5 746.5q-7.5 7.5 -7.5 19.5q0 9 7 19l51 90
q10 19 33 19q16 0 26.5 -10t10.5 -27q0 -14 -10 -25l-69 -82q-9 -11 -22 -11q-12 0 -19.5 7.5z" />
    <glyph glyph-name="Thorn" unicode="&#xde;" horiz-adv-x="672" 
d="M110 8q-13 13 -13 32v617q0 19 13 32.5t32 13.5t32.5 -13.5t13.5 -32.5v-71h182q95 0 155 -32t86 -82t26 -108t-26 -108t-86 -82t-155 -32h-182v-102q0 -19 -13.5 -32t-32.5 -13t-32 13zM361 228q102 0 143.5 39t41.5 97t-41.5 97t-143.5 39h-173v-272h173z" />
    <glyph glyph-name="germandbls" unicode="&#xdf;" horiz-adv-x="608" 
d="M262 7q-32 11 -32 38q0 17 11 28t28 11q8 0 15 -3q30 -10 74 -10q40 0 77 26t37 88q0 57 -48.5 90.5t-123.5 33.5q-18 0 -28 10t-10 27q0 15 10.5 25t27.5 12q61 7 97 39t36 80q0 56 -34.5 88.5t-94.5 32.5q-58 0 -96 -33.5t-38 -114.5v-434q0 -19 -13.5 -32t-32.5 -13
t-32 13t-13 32v445q0 105 62 163.5t164 58.5q54 0 104.5 -21.5t82.5 -66t32 -108.5q0 -125 -110 -160q60 -14 104.5 -56.5t44.5 -121.5q0 -60 -27 -101.5t-70 -62t-93 -20.5q-62 0 -111 17z" />
    <glyph glyph-name="agrave" unicode="&#xe0;" horiz-adv-x="562" 
d="M127.5 8q-37.5 18 -59.5 52.5t-22 79.5q0 74 58.5 118t171.5 44h121v8q0 66 -32.5 95t-101.5 29q-38 0 -67.5 -6t-65.5 -18q-8 -2 -13 -2q-15 0 -26 11t-11 27q0 27 26 38q85 36 173 36q69 0 116.5 -28t70 -72.5t22.5 -96.5v-283q0 -19 -13.5 -32t-32.5 -13t-32 13
t-13 32v26q-74 -76 -188 -76q-44 0 -81.5 18zM328 91.5q41 21.5 69 53.5v84h-109q-151 0 -151 -79q0 -36 24.5 -58t81.5 -22q44 0 85 21.5zM257 578l-69 82q-10 11 -10 25q0 17 10 27t27 10q23 0 33 -19l51 -90q7 -10 7 -19q0 -12 -7.5 -19.5t-19.5 -7.5q-13 0 -22 11z" />
    <glyph glyph-name="aacute" unicode="&#xe1;" horiz-adv-x="562" 
d="M127.5 8q-37.5 18 -59.5 52.5t-22 79.5q0 74 58.5 118t171.5 44h121v8q0 66 -32.5 95t-101.5 29q-38 0 -67.5 -6t-65.5 -18q-8 -2 -13 -2q-15 0 -26 11t-11 27q0 27 26 38q85 36 173 36q69 0 116.5 -28t70 -72.5t22.5 -96.5v-283q0 -19 -13.5 -32t-32.5 -13t-32 13
t-13 32v26q-74 -76 -188 -76q-44 0 -81.5 18zM328 91.5q41 21.5 69 53.5v84h-109q-151 0 -151 -79q0 -36 24.5 -58t81.5 -22q44 0 85 21.5zM259.5 574.5q-7.5 7.5 -7.5 19.5q0 9 7 19l51 90q10 19 33 19q16 0 26.5 -10t10.5 -27q0 -14 -10 -25l-69 -82q-9 -11 -22 -11
q-12 0 -19.5 7.5z" />
    <glyph glyph-name="acircumflex" unicode="&#xe2;" horiz-adv-x="562" 
d="M127.5 8q-37.5 18 -59.5 52.5t-22 79.5q0 74 58.5 118t171.5 44h121v8q0 66 -32.5 95t-101.5 29q-38 0 -67.5 -6t-65.5 -18q-8 -2 -13 -2q-15 0 -26 11t-11 27q0 27 26 38q85 36 173 36q69 0 116.5 -28t70 -72.5t22.5 -96.5v-283q0 -19 -13.5 -32t-32.5 -13t-32 13
t-13 32v26q-74 -76 -188 -76q-44 0 -81.5 18zM328 91.5q41 21.5 69 53.5v84h-109q-151 0 -151 -79q0 -36 24.5 -58t81.5 -22q44 0 85 21.5zM152 575.5q-9 9.5 -8 20.5q0 11 8 19l68 70q9 10 18 15t22 5h38q13 0 22 -5t18 -15l68 -70q8 -8 8 -19q1 -11 -8 -20.5t-22 -9.5
q-11 0 -18 7l-87 74l-87 -74q-7 -7 -18 -7q-13 0 -22 9.5z" />
    <glyph glyph-name="atilde" unicode="&#xe3;" horiz-adv-x="562" 
d="M127.5 8q-37.5 18 -59.5 52.5t-22 79.5q0 74 58.5 118t171.5 44h121v8q0 66 -32.5 95t-101.5 29q-38 0 -67.5 -6t-65.5 -18q-8 -2 -13 -2q-15 0 -26 11t-11 27q0 27 26 38q85 36 173 36q69 0 116.5 -28t70 -72.5t22.5 -96.5v-283q0 -19 -13.5 -32t-32.5 -13t-32 13
t-13 32v26q-74 -76 -188 -76q-44 0 -81.5 18zM328 91.5q41 21.5 69 53.5v84h-109q-151 0 -151 -79q0 -36 24.5 -58t81.5 -22q44 0 85 21.5zM125 577.5q-7 6.5 -7 16.5q0 21 10.5 43t29.5 37t44 15q20 0 37.5 -6t42.5 -18q23 -11 39.5 -17t34.5 -6q15 0 23.5 7t13.5 20
q8 21 25 21q10 0 16 -6.5t7 -15.5q0 -35 -24 -65t-60 -30q-20 0 -38 6.5t-44 18.5q-23 11 -39 17t-33 6q-26 0 -39 -32q-6 -18 -23 -18q-9 0 -16 6.5z" />
    <glyph glyph-name="adieresis" unicode="&#xe4;" horiz-adv-x="562" 
d="M127.5 8q-37.5 18 -59.5 52.5t-22 79.5q0 74 58.5 118t171.5 44h121v8q0 66 -32.5 95t-101.5 29q-38 0 -67.5 -6t-65.5 -18q-8 -2 -13 -2q-15 0 -26 11t-11 27q0 27 26 38q85 36 173 36q69 0 116.5 -28t70 -72.5t22.5 -96.5v-283q0 -19 -13.5 -32t-32.5 -13t-32 13
t-13 32v26q-74 -76 -188 -76q-44 0 -81.5 18zM328 91.5q41 21.5 69 53.5v84h-109q-151 0 -151 -79q0 -36 24.5 -58t81.5 -22q44 0 85 21.5zM159 590q-15 15 -15 36t15 36t36 15t36 -15t15 -36t-15 -36t-36 -15t-36 15zM327 590q-15 15 -15 36t15 36t36 15t36 -15t15 -36
t-15 -36t-36 -15t-36 15z" />
    <glyph glyph-name="aring" unicode="&#xe5;" horiz-adv-x="562" 
d="M127.5 8q-37.5 18 -59.5 52.5t-22 79.5q0 74 58.5 118t171.5 44h121v8q0 66 -32.5 95t-101.5 29q-38 0 -67.5 -6t-65.5 -18q-8 -2 -13 -2q-15 0 -26 11t-11 27q0 27 26 38q85 36 173 36q69 0 116.5 -28t70 -72.5t22.5 -96.5v-283q0 -19 -13.5 -32t-32.5 -13t-32 13
t-13 32v26q-74 -76 -188 -76q-44 0 -81.5 18zM328 91.5q41 21.5 69 53.5v84h-109q-151 0 -151 -79q0 -36 24.5 -58t81.5 -22q44 0 85 21.5zM212.5 578.5q-27.5 27.5 -27.5 66.5t27.5 66.5t66.5 27.5t66.5 -27.5t27.5 -66.5t-27.5 -66.5t-66.5 -27.5t-66.5 27.5zM313.5 610.5
q14.5 14.5 14.5 34.5t-14.5 34.5t-34.5 14.5t-34.5 -14.5t-14.5 -34.5t14.5 -34.5t34.5 -14.5t34.5 14.5z" />
    <glyph glyph-name="ae" unicode="&#xe6;" horiz-adv-x="911" 
d="M143.5 8q-44.5 18 -71 52t-26.5 80q0 73 58.5 116t171.5 43h121v11q0 66 -32.5 95t-101.5 29q-38 0 -67.5 -6t-65.5 -18q-8 -2 -13 -2q-15 0 -26 11t-11 27q0 27 26 38q85 36 173 36q62 0 104.5 -22.5t66.5 -61.5q63 84 181 84q73 0 127 -32.5t83 -89.5t29 -129
q0 -17 -12 -30t-32 -13h-344q8 -71 51 -111t126 -40q42 0 73.5 8t61.5 23q8 4 18 4q16 0 28 -11t12 -28q0 -22 -26 -37q-39 -22 -77 -33t-98 -11q-68 0 -119 22.5t-84 64.5q-32 -49 -87.5 -68t-118.5 -19q-54 0 -98.5 18zM780 299q-3 49 -25.5 81.5t-55.5 47.5t-68 15
t-68 -15t-55.5 -47.5t-25.5 -81.5h298zM357 92q40 22 40 77v57h-109q-74 0 -112.5 -17.5t-38.5 -58.5q0 -34 32.5 -57t90.5 -23q57 0 97 22z" />
    <glyph glyph-name="ccedilla" unicode="&#xe7;" horiz-adv-x="533" 
d="M486.5 100.5q11.5 -12.5 11.5 -27.5q0 -22 -20 -35q-33 -21 -71.5 -34.5t-91.5 -13.5l-30 -53q16 4 34 4q34 0 55.5 -19.5t21.5 -50.5q0 -46 -28.5 -69t-82.5 -23q-48 0 -90 26q-4 3 -7.5 7.5t-3.5 9.5q0 8 5 14t14 6q4 0 10 -3q31 -17 59 -17q57 0 57 46q0 15 -10 23
t-26 8q-22 0 -44 -11q-6 -3 -10 -3q-7 0 -12.5 4.5t-5.5 11.5q0 8 4 14l49 78q-63 9 -114.5 42.5t-81.5 90t-30 129.5q0 81 36.5 141t97.5 92t133 32q53 0 91.5 -13.5t71.5 -34.5q20 -13 20 -35q0 -15 -11.5 -27.5t-26.5 -12.5q-11 0 -22 6q-33 17 -56.5 24.5t-58.5 7.5
q-86 0 -135 -49.5t-49 -130.5t49 -130.5t135 -49.5q35 0 58.5 7.5t56.5 24.5q11 6 22 6q15 0 26.5 -12.5z" />
    <glyph glyph-name="egrave" unicode="&#xe8;" horiz-adv-x="566" 
d="M116.5 59.5q-68.5 69.5 -68.5 195.5q0 71 26 131t80 97t133 37q74 0 128 -34.5t82 -92t28 -125.5q0 -19 -12.5 -32t-33.5 -13h-339q8 -70 52 -109t123 -39q42 0 73.5 8t61.5 23q8 4 18 4q16 0 28 -11t12 -28q0 -22 -26 -37q-39 -22 -77 -33t-98 -11q-122 0 -190.5 69.5z
M435 297q-3 49 -25.5 82t-55.5 48.5t-67 15.5t-67 -15.5t-55 -48.5t-25 -82h295zM263 578l-69 82q-10 11 -10 25q0 17 10 27t27 10q23 0 33 -19l51 -90q7 -10 7 -19q0 -12 -7.5 -19.5t-19.5 -7.5q-13 0 -22 11z" />
    <glyph glyph-name="eacute" unicode="&#xe9;" horiz-adv-x="566" 
d="M116.5 59.5q-68.5 69.5 -68.5 195.5q0 71 26 131t80 97t133 37q74 0 128 -34.5t82 -92t28 -125.5q0 -19 -12.5 -32t-33.5 -13h-339q8 -70 52 -109t123 -39q42 0 73.5 8t61.5 23q8 4 18 4q16 0 28 -11t12 -28q0 -22 -26 -37q-39 -22 -77 -33t-98 -11q-122 0 -190.5 69.5z
M435 297q-3 49 -25.5 82t-55.5 48.5t-67 15.5t-67 -15.5t-55 -48.5t-25 -82h295zM265.5 574.5q-7.5 7.5 -7.5 19.5q0 9 7 19l51 90q10 19 33 19q16 0 26.5 -10t10.5 -27q0 -14 -10 -25l-69 -82q-9 -11 -22 -11q-12 0 -19.5 7.5z" />
    <glyph glyph-name="ecircumflex" unicode="&#xea;" horiz-adv-x="566" 
d="M116.5 59.5q-68.5 69.5 -68.5 195.5q0 71 26 131t80 97t133 37q74 0 128 -34.5t82 -92t28 -125.5q0 -19 -12.5 -32t-33.5 -13h-339q8 -70 52 -109t123 -39q42 0 73.5 8t61.5 23q8 4 18 4q16 0 28 -11t12 -28q0 -22 -26 -37q-39 -22 -77 -33t-98 -11q-122 0 -190.5 69.5z
M435 297q-3 49 -25.5 82t-55.5 48.5t-67 15.5t-67 -15.5t-55 -48.5t-25 -82h295zM158 575.5q-9 9.5 -8 20.5q0 11 8 19l68 70q9 10 18 15t22 5h38q13 0 22 -5t18 -15l68 -70q8 -8 8 -19q1 -11 -8 -20.5t-22 -9.5q-11 0 -18 7l-87 74l-87 -74q-7 -7 -18 -7q-13 0 -22 9.5z
" />
    <glyph glyph-name="edieresis" unicode="&#xeb;" horiz-adv-x="566" 
d="M116.5 59.5q-68.5 69.5 -68.5 195.5q0 71 26 131t80 97t133 37q74 0 128 -34.5t82 -92t28 -125.5q0 -19 -12.5 -32t-33.5 -13h-339q8 -70 52 -109t123 -39q42 0 73.5 8t61.5 23q8 4 18 4q16 0 28 -11t12 -28q0 -22 -26 -37q-39 -22 -77 -33t-98 -11q-122 0 -190.5 69.5z
M435 297q-3 49 -25.5 82t-55.5 48.5t-67 15.5t-67 -15.5t-55 -48.5t-25 -82h295zM165 590q-15 15 -15 36t15 36t36 15t36 -15t15 -36t-15 -36t-36 -15t-36 15zM333 590q-15 15 -15 36t15 36t36 15t36 -15t15 -36t-15 -36t-36 -15t-36 15z" />
    <glyph glyph-name="igrave" unicode="&#xec;" horiz-adv-x="249" 
d="M92 8q-13 13 -13 32v429q0 19 13 32.5t32 13.5q20 0 33 -13t13 -33v-429q0 -19 -13.5 -32t-32.5 -13t-32 13zM103 578l-69 82q-10 11 -10 25q0 17 10 27t27 10q23 0 33 -19l51 -90q7 -10 7 -19q0 -12 -7.5 -19.5t-19.5 -7.5q-13 0 -22 11z" />
    <glyph glyph-name="iacute" unicode="&#xed;" horiz-adv-x="249" 
d="M92 8q-13 13 -13 32v429q0 19 13 32.5t32 13.5q20 0 33 -13t13 -33v-429q0 -19 -13.5 -32t-32.5 -13t-32 13zM105.5 574.5q-7.5 7.5 -7.5 19.5q0 9 7 19l51 90q10 19 33 19q16 0 26.5 -10t10.5 -27q0 -14 -10 -25l-69 -82q-9 -11 -22 -11q-12 0 -19.5 7.5z" />
    <glyph glyph-name="icircumflex" unicode="&#xee;" horiz-adv-x="249" 
d="M92 8q-13 13 -13 32v429q0 19 13 32.5t32 13.5q20 0 33 -13t13 -33v-429q0 -19 -13.5 -32t-32.5 -13t-32 13zM-2 575.5q-9 9.5 -8 20.5q0 11 8 19l68 70q9 10 18 15t22 5h38q13 0 22 -5t18 -15l68 -70q8 -8 8 -19q1 -11 -8 -20.5t-22 -9.5q-11 0 -18 7l-87 74l-87 -74
q-7 -7 -18 -7q-13 0 -22 9.5z" />
    <glyph glyph-name="idieresis" unicode="&#xef;" horiz-adv-x="249" 
d="M92 8q-13 13 -13 32v429q0 19 13 32.5t32 13.5q20 0 33 -13t13 -33v-429q0 -19 -13.5 -32t-32.5 -13t-32 13zM5 590q-15 15 -15 36t15 36t36 15t36 -15t15 -36t-15 -36t-36 -15t-36 15zM173 590q-15 15 -15 36t15 36t36 15t36 -15t15 -36t-15 -36t-36 -15t-36 15z" />
    <glyph glyph-name="eth" unicode="&#xf0;" horiz-adv-x="593" 
d="M165.5 22.5q-56.5 32.5 -87 91t-30.5 134.5q0 68 28 127t81 94.5t125 35.5q59 0 113 -28q-41 61 -107 117l-84 -49q-10 -6 -17 -6q-10 0 -17.5 7.5t-7.5 17.5q0 15 15 23l68 40q-50 34 -76 48q-9 4 -14.5 14t-5.5 21q0 18 12.5 30t29.5 12q11 0 22 -6q60 -37 108 -75
l68 41q8 5 15 5q11 0 18 -7t7 -18q0 -14 -12 -22l-56 -33q81 -73 132.5 -164t51.5 -199q0 -125 -61 -204.5t-188 -79.5q-74 0 -130.5 32.5zM373 89q37 19 60.5 60t23.5 103q0 61 -23.5 101.5t-60.5 59t-77 18.5t-76.5 -18.5t-60 -59t-23.5 -101.5q0 -62 23.5 -103t60 -60
t76.5 -19t77 19z" />
    <glyph glyph-name="ntilde" unicode="&#xf1;" horiz-adv-x="609" 
d="M92 8q-13 13 -13 32v429q0 19 13 32.5t32 13.5t32.5 -13.5t13.5 -32.5v-41q38 42 82 67t104 25q55 0 95.5 -26t62 -71t21.5 -99v-284q0 -19 -13.5 -32t-32.5 -13t-32 13t-13 32v274q0 122 -110 122q-50 0 -89.5 -26t-74.5 -70v-300q0 -19 -13.5 -32t-32.5 -13t-32 13z
M151 577.5q-7 6.5 -7 16.5q0 21 10.5 43t29.5 37t44 15q20 0 37.5 -6t42.5 -18q23 -11 39.5 -17t34.5 -6q15 0 23.5 7t13.5 20q8 21 25 21q10 0 16 -6.5t7 -15.5q0 -35 -24 -65t-60 -30q-20 0 -38 6.5t-44 18.5q-23 11 -39 17t-33 6q-26 0 -39 -32q-6 -18 -23 -18
q-9 0 -16 6.5z" />
    <glyph glyph-name="ograve" unicode="&#xf2;" horiz-adv-x="608" 
d="M169 23q-58 33 -89.5 93.5t-31.5 138.5t31.5 138.5t89.5 93.5t135 33q76 0 134 -33t90 -93.5t32 -138.5t-32 -138.5t-90 -93.5t-134 -33q-77 0 -135 33zM382.5 92q37.5 19 62 60t24.5 104q0 62 -24.5 103t-62 59.5t-78.5 18.5q-42 0 -79.5 -18.5t-61.5 -59.5t-24 -103
q0 -63 24 -104t61.5 -60t79.5 -19q41 0 78.5 19zM282 578l-69 82q-10 11 -10 25q0 17 10 27t27 10q23 0 33 -19l51 -90q7 -10 7 -19q0 -12 -7.5 -19.5t-19.5 -7.5q-13 0 -22 11z" />
    <glyph glyph-name="oacute" unicode="&#xf3;" horiz-adv-x="608" 
d="M169 23q-58 33 -89.5 93.5t-31.5 138.5t31.5 138.5t89.5 93.5t135 33q76 0 134 -33t90 -93.5t32 -138.5t-32 -138.5t-90 -93.5t-134 -33q-77 0 -135 33zM382.5 92q37.5 19 62 60t24.5 104q0 62 -24.5 103t-62 59.5t-78.5 18.5q-42 0 -79.5 -18.5t-61.5 -59.5t-24 -103
q0 -63 24 -104t61.5 -60t79.5 -19q41 0 78.5 19zM284.5 574.5q-7.5 7.5 -7.5 19.5q0 9 7 19l51 90q10 19 33 19q16 0 26.5 -10t10.5 -27q0 -14 -10 -25l-69 -82q-9 -11 -22 -11q-12 0 -19.5 7.5z" />
    <glyph glyph-name="ocircumflex" unicode="&#xf4;" horiz-adv-x="608" 
d="M169 23q-58 33 -89.5 93.5t-31.5 138.5t31.5 138.5t89.5 93.5t135 33q76 0 134 -33t90 -93.5t32 -138.5t-32 -138.5t-90 -93.5t-134 -33q-77 0 -135 33zM382.5 92q37.5 19 62 60t24.5 104q0 62 -24.5 103t-62 59.5t-78.5 18.5q-42 0 -79.5 -18.5t-61.5 -59.5t-24 -103
q0 -63 24 -104t61.5 -60t79.5 -19q41 0 78.5 19zM177 575.5q-9 9.5 -8 20.5q0 11 8 19l68 70q9 10 18 15t22 5h38q13 0 22 -5t18 -15l68 -70q8 -8 8 -19q1 -11 -8 -20.5t-22 -9.5q-11 0 -18 7l-87 74l-87 -74q-7 -7 -18 -7q-13 0 -22 9.5z" />
    <glyph glyph-name="otilde" unicode="&#xf5;" horiz-adv-x="608" 
d="M169 23q-58 33 -89.5 93.5t-31.5 138.5t31.5 138.5t89.5 93.5t135 33q76 0 134 -33t90 -93.5t32 -138.5t-32 -138.5t-90 -93.5t-134 -33q-77 0 -135 33zM382.5 92q37.5 19 62 60t24.5 104q0 62 -24.5 103t-62 59.5t-78.5 18.5q-42 0 -79.5 -18.5t-61.5 -59.5t-24 -103
q0 -63 24 -104t61.5 -60t79.5 -19q41 0 78.5 19zM150 577.5q-7 6.5 -7 16.5q0 21 10.5 43t29.5 37t44 15q20 0 37.5 -6t42.5 -18q23 -11 39.5 -17t34.5 -6q15 0 23.5 7t13.5 20q8 21 25 21q10 0 16 -6.5t7 -15.5q0 -35 -24 -65t-60 -30q-20 0 -38 6.5t-44 18.5
q-23 11 -39 17t-33 6q-26 0 -39 -32q-6 -18 -23 -18q-9 0 -16 6.5z" />
    <glyph glyph-name="odieresis" unicode="&#xf6;" horiz-adv-x="608" 
d="M169 23q-58 33 -89.5 93.5t-31.5 138.5t31.5 138.5t89.5 93.5t135 33q76 0 134 -33t90 -93.5t32 -138.5t-32 -138.5t-90 -93.5t-134 -33q-77 0 -135 33zM382.5 92q37.5 19 62 60t24.5 104q0 62 -24.5 103t-62 59.5t-78.5 18.5q-42 0 -79.5 -18.5t-61.5 -59.5t-24 -103
q0 -63 24 -104t61.5 -60t79.5 -19q41 0 78.5 19zM184 590q-15 15 -15 36t15 36t36 15t36 -15t15 -36t-15 -36t-36 -15t-36 15zM352 590q-15 15 -15 36t15 36t36 15t36 -15t15 -36t-15 -36t-36 -15t-36 15z" />
    <glyph glyph-name="divide" unicode="&#xf7;" horiz-adv-x="712" 
d="M320 480q-15 15 -15 36t15 36t36 15t36 -15t15 -36t-15 -36t-36 -15t-36 15zM84.5 302.5q-11.5 11.5 -11.5 28.5t11.5 29t28.5 12h485q17 0 29 -12t12 -29t-12 -28.5t-29 -11.5h-485q-17 0 -28.5 11.5zM320 110q-15 15 -15 36t15 36t36 15t36 -15t15 -36t-15 -36t-36 -15
t-36 15z" />
    <glyph glyph-name="oslash" unicode="&#xf8;" horiz-adv-x="608" 
d="M102 -24q-7 7 -7 17q0 8 6 17l29 41q-39 36 -60.5 88t-21.5 116q0 78 31.5 138.5t89.5 93.5t135 33q71 0 132 -32l29 41q7 10 21 10q11 0 18 -7t7 -17q0 -8 -6 -17l-28 -40q40 -35 61.5 -87t21.5 -116q0 -78 -32 -138.5t-90 -93.5t-134 -33q-75 0 -133 32l-30 -43
q-7 -10 -21 -10q-11 0 -18 7zM386 416q-39 21 -82 21q-42 0 -79.5 -18.5t-61.5 -59.5t-24 -103q0 -83 43 -131zM382.5 92q37.5 19 62 60t24.5 104q0 79 -43 129l-204 -291q36 -21 82 -21q41 0 78.5 19z" />
    <glyph glyph-name="ugrave" unicode="&#xf9;" horiz-adv-x="609" 
d="M157.5 16q-40.5 26 -62 71t-21.5 99v284q0 19 13.5 32t32.5 13t32 -13t13 -32v-274q0 -122 110 -122q50 0 89.5 26t74.5 70v300q0 19 13.5 32t32.5 13t32 -13t13 -32v-429q0 -19 -13 -32.5t-32 -13.5t-32.5 13.5t-13.5 32.5v41q-38 -42 -82 -67t-104 -25q-55 0 -95.5 26z
M283 578l-69 82q-10 11 -10 25q0 17 10 27t27 10q23 0 33 -19l51 -90q7 -10 7 -19q0 -12 -7.5 -19.5t-19.5 -7.5q-13 0 -22 11z" />
    <glyph glyph-name="uacute" unicode="&#xfa;" horiz-adv-x="609" 
d="M157.5 16q-40.5 26 -62 71t-21.5 99v284q0 19 13.5 32t32.5 13t32 -13t13 -32v-274q0 -122 110 -122q50 0 89.5 26t74.5 70v300q0 19 13.5 32t32.5 13t32 -13t13 -32v-429q0 -19 -13 -32.5t-32 -13.5t-32.5 13.5t-13.5 32.5v41q-38 -42 -82 -67t-104 -25q-55 0 -95.5 26z
M285.5 574.5q-7.5 7.5 -7.5 19.5q0 9 7 19l51 90q10 19 33 19q16 0 26.5 -10t10.5 -27q0 -14 -10 -25l-69 -82q-9 -11 -22 -11q-12 0 -19.5 7.5z" />
    <glyph glyph-name="ucircumflex" unicode="&#xfb;" horiz-adv-x="609" 
d="M157.5 16q-40.5 26 -62 71t-21.5 99v284q0 19 13.5 32t32.5 13t32 -13t13 -32v-274q0 -122 110 -122q50 0 89.5 26t74.5 70v300q0 19 13.5 32t32.5 13t32 -13t13 -32v-429q0 -19 -13 -32.5t-32 -13.5t-32.5 13.5t-13.5 32.5v41q-38 -42 -82 -67t-104 -25q-55 0 -95.5 26z
M178 575.5q-9 9.5 -8 20.5q0 11 8 19l68 70q9 10 18 15t22 5h38q13 0 22 -5t18 -15l68 -70q8 -8 8 -19q1 -11 -8 -20.5t-22 -9.5q-11 0 -18 7l-87 74l-87 -74q-7 -7 -18 -7q-13 0 -22 9.5z" />
    <glyph glyph-name="udieresis" unicode="&#xfc;" horiz-adv-x="609" 
d="M157.5 16q-40.5 26 -62 71t-21.5 99v284q0 19 13.5 32t32.5 13t32 -13t13 -32v-274q0 -122 110 -122q50 0 89.5 26t74.5 70v300q0 19 13.5 32t32.5 13t32 -13t13 -32v-429q0 -19 -13 -32.5t-32 -13.5t-32.5 13.5t-13.5 32.5v41q-38 -42 -82 -67t-104 -25q-55 0 -95.5 26z
M185 590q-15 15 -15 36t15 36t36 15t36 -15t15 -36t-15 -36t-36 -15t-36 15zM353 590q-15 15 -15 36t15 36t36 15t36 -15t15 -36t-15 -36t-36 -15t-36 15z" />
    <glyph glyph-name="yacute" unicode="&#xfd;" horiz-adv-x="537" 
d="M162.5 -222q-12.5 13 -12.5 31q0 8 3 16l65 167l-188 458q-4 10 -4 19q0 19 13 32.5t32 13.5q14 0 25.5 -8t16.5 -20l154 -382l157 380q13 30 42 30q19 0 32 -13.5t13 -32.5q0 -9 -3 -17l-273 -656q-14 -31 -42 -31q-18 0 -30.5 13zM249.5 574.5q-7.5 7.5 -7.5 19.5
q0 9 7 19l51 90q10 19 33 19q16 0 26.5 -10t10.5 -27q0 -14 -10 -25l-69 -82q-9 -11 -22 -11q-12 0 -19.5 7.5z" />
    <glyph glyph-name="thorn" unicode="&#xfe;" horiz-adv-x="631" 
d="M92 -221.5q-13 13.5 -13 32.5v878q0 19 13 32.5t32 13.5q20 0 33 -13t13 -33v-245q73 76 171 76q62 0 117.5 -31.5t90 -92t34.5 -141.5t-34.5 -141.5t-90 -92t-117.5 -31.5q-98 0 -171 76v-255q0 -20 -13 -33t-33 -13q-19 0 -32 13.5zM447 122q45 47 45 133t-45 133
t-119 47q-46 0 -86.5 -20.5t-71.5 -54.5v-210q31 -34 71.5 -54.5t86.5 -20.5q74 0 119 47z" />
    <glyph glyph-name="ydieresis" unicode="&#xff;" horiz-adv-x="537" 
d="M162.5 -222q-12.5 13 -12.5 31q0 8 3 16l65 167l-188 458q-4 10 -4 19q0 19 13 32.5t32 13.5q14 0 25.5 -8t16.5 -20l154 -382l157 380q13 30 42 30q19 0 32 -13.5t13 -32.5q0 -9 -3 -17l-273 -656q-14 -31 -42 -31q-18 0 -30.5 13zM149 590q-15 15 -15 36t15 36t36 15
t36 -15t15 -36t-15 -36t-36 -15t-36 15zM317 590q-15 15 -15 36t15 36t36 15t36 -15t15 -36t-15 -36t-36 -15t-36 15z" />
    <glyph glyph-name="Amacron" unicode="&#x100;" horiz-adv-x="746" 
d="M62.5 8q-12.5 13 -12.5 32q0 8 5 20l255 602q8 18 22.5 29.5t35.5 11.5h10q21 0 35.5 -11.5t22.5 -29.5l255 -602q5 -12 5 -20q0 -19 -12.5 -32t-32.5 -13q-14 0 -25.5 7.5t-17.5 20.5l-65 156h-340l-65 -156q-6 -13 -17.5 -20.5t-25.5 -7.5q-20 0 -32.5 13zM238 262h270
l-135 325zM234.5 768.5q-8.5 8.5 -8.5 21.5t8.5 21.5t21.5 8.5h234q13 0 21.5 -8.5t8.5 -21.5t-8.5 -21.5t-21.5 -8.5h-234q-13 0 -21.5 8.5z" />
    <glyph glyph-name="amacron" unicode="&#x101;" horiz-adv-x="562" 
d="M127.5 8q-37.5 18 -59.5 52.5t-22 79.5q0 74 58.5 118t171.5 44h121v8q0 66 -32.5 95t-101.5 29q-38 0 -67.5 -6t-65.5 -18q-8 -2 -13 -2q-15 0 -26 11t-11 27q0 27 26 38q85 36 173 36q69 0 116.5 -28t70 -72.5t22.5 -96.5v-283q0 -19 -13.5 -32t-32.5 -13t-32 13
t-13 32v26q-74 -76 -188 -76q-44 0 -81.5 18zM328 91.5q41 21.5 69 53.5v84h-109q-151 0 -151 -79q0 -36 24.5 -58t81.5 -22q44 0 85 21.5zM140.5 596.5q-8.5 8.5 -8.5 21.5t8.5 21.5t21.5 8.5h234q13 0 21.5 -8.5t8.5 -21.5t-8.5 -21.5t-21.5 -8.5h-234q-13 0 -21.5 8.5z
" />
    <glyph glyph-name="Abreve" unicode="&#x102;" horiz-adv-x="746" 
d="M62.5 8q-12.5 13 -12.5 32q0 8 5 20l255 602q8 18 22.5 29.5t35.5 11.5h10q21 0 35.5 -11.5t22.5 -29.5l255 -602q5 -12 5 -20q0 -19 -12.5 -32t-32.5 -13q-14 0 -25.5 7.5t-17.5 20.5l-65 156h-340l-65 -156q-6 -13 -17.5 -20.5t-25.5 -7.5q-20 0 -32.5 13zM238 262h270
l-135 325zM289 770q-37 22 -56 59q-3 6 -3 14q0 13 8.5 22t22.5 9q19 0 28 -19q11 -23 33 -36t51 -13t51 13t33 36q9 19 28 19q14 0 22.5 -9t8.5 -22q0 -8 -3 -14q-19 -37 -56 -59t-84 -22t-84 22z" />
    <glyph glyph-name="abreve" unicode="&#x103;" horiz-adv-x="562" 
d="M127.5 8q-37.5 18 -59.5 52.5t-22 79.5q0 74 58.5 118t171.5 44h121v8q0 66 -32.5 95t-101.5 29q-38 0 -67.5 -6t-65.5 -18q-8 -2 -13 -2q-15 0 -26 11t-11 27q0 27 26 38q85 36 173 36q69 0 116.5 -28t70 -72.5t22.5 -96.5v-283q0 -19 -13.5 -32t-32.5 -13t-32 13
t-13 32v26q-74 -76 -188 -76q-44 0 -81.5 18zM328 91.5q41 21.5 69 53.5v84h-109q-151 0 -151 -79q0 -36 24.5 -58t81.5 -22q44 0 85 21.5zM193.5 597.5q-37.5 21.5 -54.5 59.5q-3 6 -3 14q0 13 8.5 22t22.5 9q19 0 28 -19q11 -23 33 -36t51 -13t51 13t33 36q9 19 28 19
q14 0 22.5 -9t8.5 -22q0 -8 -3 -14q-17 -38 -54.5 -59.5t-85.5 -21.5t-85.5 21.5z" />
    <glyph glyph-name="Aogonek" unicode="&#x104;" horiz-adv-x="746" 
d="M527.5 -180q-27.5 23 -27.5 61t27 73.5t84 61.5l-68 163h-340l-65 -156q-6 -13 -17.5 -20.5t-25.5 -7.5q-20 0 -32.5 13t-12.5 32q0 8 5 20l255 602q8 18 22.5 29.5t35.5 11.5h10q21 0 35.5 -11.5t22.5 -29.5l255 -602q5 -12 5 -20q0 -14 -7 -25t-18 -16
q-39 -17 -68.5 -41.5t-29.5 -56.5q0 -48 51 -48q15 0 35 6q6 2 9 2q10 0 16 -6t6 -16t-11 -18q-34 -24 -86 -24q-38 0 -65.5 23zM238 262h270l-135 325z" />
    <glyph glyph-name="aogonek" unicode="&#x105;" horiz-adv-x="554" 
d="M309.5 -180q-27.5 23 -27.5 61q0 78 107 134v51q-74 -76 -188 -76q-44 0 -81.5 18t-59.5 52.5t-22 79.5q0 74 58.5 118t171.5 44h121v8q0 66 -32.5 95t-101.5 29q-38 0 -67.5 -6t-65.5 -18q-8 -2 -13 -2q-15 0 -26 11t-11 27q0 27 26 38q85 36 173 36q69 0 116.5 -28
t70 -72.5t22.5 -96.5v-283q0 -15 -9 -26.5t-25 -17.5q-43 -17 -67 -43.5t-24 -52.5q0 -47 51 -47q15 0 35 6q6 2 9 2q10 0 16 -6t6 -16t-11 -18q-34 -24 -86 -24q-38 0 -65.5 23zM320 91.5q41 21.5 69 53.5v84h-109q-151 0 -151 -79q0 -36 24.5 -58t81.5 -22q44 0 85 21.5z
" />
    <glyph glyph-name="Cacute" unicode="&#x106;" horiz-adv-x="695" 
d="M225.5 33.5q-79.5 43.5 -125 125t-45.5 190.5t45.5 190.5t125 125t179.5 43.5q68 0 121.5 -16t106.5 -46q22 -12 22 -38q0 -15 -11 -26.5t-29 -11.5q-10 0 -18 4q-44 23 -86 35t-97 12q-86 0 -146.5 -35.5t-91 -97t-30.5 -139.5t30.5 -139.5t91 -97t146.5 -35.5
q55 0 97 12t86 35q8 4 18 4q18 0 29 -11t11 -27q0 -26 -22 -38q-53 -30 -106.5 -46t-121.5 -16q-100 0 -179.5 43.5zM375.5 746.5q-7.5 7.5 -7.5 19.5q0 9 7 19l51 90q10 19 33 19q16 0 26.5 -10t10.5 -27q0 -14 -10 -25l-69 -82q-9 -11 -22 -11q-12 0 -19.5 7.5z" />
    <glyph glyph-name="cacute" unicode="&#x107;" horiz-adv-x="533" 
d="M182 22q-61 32 -97.5 92t-36.5 141t36.5 141t97.5 92t133 32q53 0 91.5 -13.5t71.5 -34.5q20 -13 20 -35q0 -15 -11.5 -27.5t-26.5 -12.5q-11 0 -22 6q-33 17 -56.5 24.5t-58.5 7.5q-86 0 -135 -49.5t-49 -130.5t49 -130.5t135 -49.5q35 0 58.5 7.5t56.5 24.5q11 6 22 6
q15 0 26.5 -12.5t11.5 -27.5q0 -22 -20 -35q-33 -21 -71.5 -34.5t-91.5 -13.5q-72 0 -133 32zM278.5 574.5q-7.5 7.5 -7.5 19.5q0 9 7 19l51 90q10 19 33 19q16 0 26.5 -10t10.5 -27q0 -14 -10 -25l-69 -82q-9 -11 -22 -11q-12 0 -19.5 7.5z" />
    <glyph glyph-name="Ccircumflex" unicode="&#x108;" horiz-adv-x="695" 
d="M225.5 33.5q-79.5 43.5 -125 125t-45.5 190.5t45.5 190.5t125 125t179.5 43.5q68 0 121.5 -16t106.5 -46q22 -12 22 -38q0 -15 -11 -26.5t-29 -11.5q-10 0 -18 4q-44 23 -86 35t-97 12q-86 0 -146.5 -35.5t-91 -97t-30.5 -139.5t30.5 -139.5t91 -97t146.5 -35.5
q55 0 97 12t86 35q8 4 18 4q18 0 29 -11t11 -27q0 -26 -22 -38q-53 -30 -106.5 -46t-121.5 -16q-100 0 -179.5 43.5zM268 747.5q-9 9.5 -8 20.5q0 11 8 19l68 70q9 10 18 15t22 5h38q13 0 22 -5t18 -15l68 -70q8 -8 8 -19q1 -11 -8 -20.5t-22 -9.5q-11 0 -18 7l-87 74
l-87 -74q-7 -7 -18 -7q-13 0 -22 9.5z" />
    <glyph glyph-name="ccircumflex" unicode="&#x109;" horiz-adv-x="533" 
d="M182 22q-61 32 -97.5 92t-36.5 141t36.5 141t97.5 92t133 32q53 0 91.5 -13.5t71.5 -34.5q20 -13 20 -35q0 -15 -11.5 -27.5t-26.5 -12.5q-11 0 -22 6q-33 17 -56.5 24.5t-58.5 7.5q-86 0 -135 -49.5t-49 -130.5t49 -130.5t135 -49.5q35 0 58.5 7.5t56.5 24.5q11 6 22 6
q15 0 26.5 -12.5t11.5 -27.5q0 -22 -20 -35q-33 -21 -71.5 -34.5t-91.5 -13.5q-72 0 -133 32zM171 575.5q-9 9.5 -8 20.5q0 11 8 19l68 70q9 10 18 15t22 5h38q13 0 22 -5t18 -15l68 -70q8 -8 8 -19q1 -11 -8 -20.5t-22 -9.5q-11 0 -18 7l-87 74l-87 -74q-7 -7 -18 -7
q-13 0 -22 9.5z" />
    <glyph glyph-name="Cdotaccent" unicode="&#x10a;" horiz-adv-x="695" 
d="M225.5 33.5q-79.5 43.5 -125 125t-45.5 190.5t45.5 190.5t125 125t179.5 43.5q68 0 121.5 -16t106.5 -46q22 -12 22 -38q0 -15 -11 -26.5t-29 -11.5q-10 0 -18 4q-44 23 -86 35t-97 12q-86 0 -146.5 -35.5t-91 -97t-30.5 -139.5t30.5 -139.5t91 -97t146.5 -35.5
q55 0 97 12t86 35q8 4 18 4q18 0 29 -11t11 -27q0 -26 -22 -38q-53 -30 -106.5 -46t-121.5 -16q-100 0 -179.5 43.5zM359 762q-15 15 -15 36t15 36t36 15t36 -15t15 -36t-15 -36t-36 -15t-36 15z" />
    <glyph glyph-name="cdotaccent" unicode="&#x10b;" horiz-adv-x="533" 
d="M182 22q-61 32 -97.5 92t-36.5 141t36.5 141t97.5 92t133 32q53 0 91.5 -13.5t71.5 -34.5q20 -13 20 -35q0 -15 -11.5 -27.5t-26.5 -12.5q-11 0 -22 6q-33 17 -56.5 24.5t-58.5 7.5q-86 0 -135 -49.5t-49 -130.5t49 -130.5t135 -49.5q35 0 58.5 7.5t56.5 24.5q11 6 22 6
q15 0 26.5 -12.5t11.5 -27.5q0 -22 -20 -35q-33 -21 -71.5 -34.5t-91.5 -13.5q-72 0 -133 32zM262 590q-15 15 -15 36t15 36t36 15t36 -15t15 -36t-15 -36t-36 -15t-36 15z" />
    <glyph glyph-name="Ccaron" unicode="&#x10c;" horiz-adv-x="695" 
d="M225.5 33.5q-79.5 43.5 -125 125t-45.5 190.5t45.5 190.5t125 125t179.5 43.5q68 0 121.5 -16t106.5 -46q22 -12 22 -38q0 -15 -11 -26.5t-29 -11.5q-10 0 -18 4q-44 23 -86 35t-97 12q-86 0 -146.5 -35.5t-91 -97t-30.5 -139.5t30.5 -139.5t91 -97t146.5 -35.5
q55 0 97 12t86 35q8 4 18 4q18 0 29 -11t11 -27q0 -26 -22 -38q-53 -30 -106.5 -46t-121.5 -16q-100 0 -179.5 43.5zM354 744q-9 5 -18 15l-68 70q-8 8 -8 19q-1 11 8 20.5t22 9.5q11 0 18 -7l87 -74l87 74q7 7 18 7q13 0 22 -9.5t8 -20.5q0 -11 -8 -19l-68 -70
q-9 -10 -18 -15t-22 -5h-38q-13 0 -22 5z" />
    <glyph glyph-name="ccaron" unicode="&#x10d;" horiz-adv-x="533" 
d="M182 22q-61 32 -97.5 92t-36.5 141t36.5 141t97.5 92t133 32q53 0 91.5 -13.5t71.5 -34.5q20 -13 20 -35q0 -15 -11.5 -27.5t-26.5 -12.5q-11 0 -22 6q-33 17 -56.5 24.5t-58.5 7.5q-86 0 -135 -49.5t-49 -130.5t49 -130.5t135 -49.5q35 0 58.5 7.5t56.5 24.5q11 6 22 6
q15 0 26.5 -12.5t11.5 -27.5q0 -22 -20 -35q-33 -21 -71.5 -34.5t-91.5 -13.5q-72 0 -133 32zM257 572q-9 5 -18 15l-68 70q-8 8 -8 19q-1 11 8 20.5t22 9.5q11 0 18 -7l87 -74l87 74q7 7 18 7q13 0 22 -9.5t8 -20.5q0 -11 -8 -19l-68 -70q-9 -10 -18 -15t-22 -5h-38
q-13 0 -22 5z" />
    <glyph glyph-name="Dcaron" unicode="&#x10e;" horiz-adv-x="751" 
d="M110 13q-13 13 -13 32v607q0 19 13 32.5t32 13.5h201q114 0 193.5 -50.5t119.5 -130.5t40 -168t-40 -168t-119.5 -130.5t-193.5 -50.5h-201q-19 0 -32 13zM332 85q82 0 144 33.5t96 93t34 137.5t-34 137.5t-96 93t-144 33.5h-144v-528h144zM334 744q-9 5 -18 15l-68 70
q-8 8 -8 19q-1 11 8 20.5t22 9.5q11 0 18 -7l87 -74l87 74q7 7 18 7q13 0 22 -9.5t8 -20.5q0 -11 -8 -19l-68 -70q-9 -10 -18 -15t-22 -5h-38q-13 0 -22 5z" />
    <glyph glyph-name="dcaron" unicode="&#x10f;" horiz-adv-x="631" 
d="M172.5 21.5q-55.5 31.5 -90 92t-34.5 141.5t34.5 141.5t90 92t117.5 31.5q98 0 171 -76v245q0 20 13.5 33t32.5 13t32 -13.5t13 -32.5v-649q0 -19 -13 -32t-32 -13t-32.5 13t-13.5 32v26q-73 -76 -171 -76q-62 0 -117.5 31.5zM389.5 95.5q40.5 20.5 71.5 54.5v210
q-31 34 -71.5 54.5t-86.5 20.5q-74 0 -119 -47t-45 -133t45 -133t119 -47q46 0 86.5 20.5zM588 560q-6 6 -6 16t13 19q16 12 24.5 22t8.5 26q-20 0 -33 12.5t-13 31.5q0 20 13.5 34t33.5 14q21 0 33.5 -14t12.5 -35v-31q0 -31 -14 -52t-44 -43q-6 -6 -16 -6q-7 0 -13 6z" />
    <glyph glyph-name="Dcroat" unicode="&#x110;" horiz-adv-x="756" 
d="M115 13q-13 13 -13 32v270h-54q-14 0 -23.5 9.5t-9.5 23.5t9.5 24t23.5 10h54v270q0 19 13 32.5t32 13.5h201q114 0 193.5 -50.5t119.5 -130.5t40 -168t-40 -168t-119.5 -130.5t-193.5 -50.5h-201q-19 0 -32 13zM337 85q82 0 144 33.5t96 93t34 137.5t-34 137.5t-96 93
t-144 33.5h-144v-231h117q14 0 24 -10t10 -24t-10 -23.5t-24 -9.5h-117v-230h144z" />
    <glyph glyph-name="dcroat" unicode="&#x111;" horiz-adv-x="636" 
d="M172.5 21.5q-55.5 31.5 -90 92t-34.5 141.5t34.5 141.5t90 92t117.5 31.5q98 0 171 -76v129h-116q-14 0 -24 9.5t-10 23.5t10 24t24 10h116v49q0 20 13.5 33t32.5 13t32 -13.5t13 -32.5v-49h47q14 0 23.5 -10t9.5 -24t-9.5 -23.5t-23.5 -9.5h-47v-533q0 -19 -13 -32
t-32 -13t-32.5 13t-13.5 32v26q-73 -76 -171 -76q-62 0 -117.5 31.5zM389.5 95.5q40.5 20.5 71.5 54.5v210q-31 34 -71.5 54.5t-86.5 20.5q-74 0 -119 -47t-45 -133t45 -133t119 -47q46 0 86.5 20.5z" />
    <glyph glyph-name="Emacron" unicode="&#x112;" horiz-adv-x="638" 
d="M110 13q-13 13 -13 32v607q0 19 13 32.5t32 13.5h401q18 0 30.5 -12.5t12.5 -30.5t-12.5 -30t-30.5 -12h-355v-221h319q18 0 30.5 -12.5t12.5 -30.5t-12.5 -30t-30.5 -12h-319v-222h355q18 0 30.5 -12.5t12.5 -30.5t-12.5 -30t-30.5 -12h-401q-19 0 -32 13zM203.5 768.5
q-8.5 8.5 -8.5 21.5t8.5 21.5t21.5 8.5h234q13 0 21.5 -8.5t8.5 -21.5t-8.5 -21.5t-21.5 -8.5h-234q-13 0 -21.5 8.5z" />
    <glyph glyph-name="emacron" unicode="&#x113;" horiz-adv-x="566" 
d="M116.5 59.5q-68.5 69.5 -68.5 195.5q0 71 26 131t80 97t133 37q74 0 128 -34.5t82 -92t28 -125.5q0 -19 -12.5 -32t-33.5 -13h-339q8 -70 52 -109t123 -39q42 0 73.5 8t61.5 23q8 4 18 4q16 0 28 -11t12 -28q0 -22 -26 -37q-39 -22 -77 -33t-98 -11q-122 0 -190.5 69.5z
M435 297q-3 49 -25.5 82t-55.5 48.5t-67 15.5t-67 -15.5t-55 -48.5t-25 -82h295zM146.5 596.5q-8.5 8.5 -8.5 21.5t8.5 21.5t21.5 8.5h234q13 0 21.5 -8.5t8.5 -21.5t-8.5 -21.5t-21.5 -8.5h-234q-13 0 -21.5 8.5z" />
    <glyph glyph-name="Ebreve" unicode="&#x114;" horiz-adv-x="638" 
d="M110 13q-13 13 -13 32v607q0 19 13 32.5t32 13.5h401q18 0 30.5 -12.5t12.5 -30.5t-12.5 -30t-30.5 -12h-355v-221h319q18 0 30.5 -12.5t12.5 -30.5t-12.5 -30t-30.5 -12h-319v-222h355q18 0 30.5 -12.5t12.5 -30.5t-12.5 -30t-30.5 -12h-401q-19 0 -32 13zM258 770
q-37 22 -56 59q-3 6 -3 14q0 13 8.5 22t22.5 9q19 0 28 -19q11 -23 33 -36t51 -13t51 13t33 36q9 19 28 19q14 0 22.5 -9t8.5 -22q0 -8 -3 -14q-19 -37 -56 -59t-84 -22t-84 22z" />
    <glyph glyph-name="ebreve" unicode="&#x115;" horiz-adv-x="566" 
d="M116.5 59.5q-68.5 69.5 -68.5 195.5q0 71 26 131t80 97t133 37q74 0 128 -34.5t82 -92t28 -125.5q0 -19 -12.5 -32t-33.5 -13h-339q8 -70 52 -109t123 -39q42 0 73.5 8t61.5 23q8 4 18 4q16 0 28 -11t12 -28q0 -22 -26 -37q-39 -22 -77 -33t-98 -11q-122 0 -190.5 69.5z
M435 297q-3 49 -25.5 82t-55.5 48.5t-67 15.5t-67 -15.5t-55 -48.5t-25 -82h295zM199.5 597.5q-37.5 21.5 -54.5 59.5q-3 6 -3 14q0 13 8.5 22t22.5 9q19 0 28 -19q11 -23 33 -36t51 -13t51 13t33 36q9 19 28 19q14 0 22.5 -9t8.5 -22q0 -8 -3 -14q-17 -38 -54.5 -59.5
t-85.5 -21.5t-85.5 21.5z" />
    <glyph glyph-name="Edotaccent" unicode="&#x116;" horiz-adv-x="638" 
d="M110 13q-13 13 -13 32v607q0 19 13 32.5t32 13.5h401q18 0 30.5 -12.5t12.5 -30.5t-12.5 -30t-30.5 -12h-355v-221h319q18 0 30.5 -12.5t12.5 -30.5t-12.5 -30t-30.5 -12h-319v-222h355q18 0 30.5 -12.5t12.5 -30.5t-12.5 -30t-30.5 -12h-401q-19 0 -32 13zM306 762
q-15 15 -15 36t15 36t36 15t36 -15t15 -36t-15 -36t-36 -15t-36 15z" />
    <glyph glyph-name="edotaccent" unicode="&#x117;" horiz-adv-x="566" 
d="M116.5 59.5q-68.5 69.5 -68.5 195.5q0 71 26 131t80 97t133 37q74 0 128 -34.5t82 -92t28 -125.5q0 -19 -12.5 -32t-33.5 -13h-339q8 -70 52 -109t123 -39q42 0 73.5 8t61.5 23q8 4 18 4q16 0 28 -11t12 -28q0 -22 -26 -37q-39 -22 -77 -33t-98 -11q-122 0 -190.5 69.5z
M435 297q-3 49 -25.5 82t-55.5 48.5t-67 15.5t-67 -15.5t-55 -48.5t-25 -82h295zM249 590q-15 15 -15 36t15 36t36 15t36 -15t15 -36t-15 -36t-36 -15t-36 15z" />
    <glyph glyph-name="Eogonek" unicode="&#x118;" horiz-adv-x="638" 
d="M413.5 -180q-27.5 23 -27.5 61q0 70 85 119h-329q-19 0 -32 13t-13 32v607q0 19 13 32.5t32 13.5h401q18 0 30.5 -12.5t12.5 -30.5t-12.5 -30t-30.5 -12h-355v-221h319q18 0 30.5 -12.5t12.5 -30.5t-12.5 -30t-30.5 -12h-319v-222h355q18 0 30.5 -12.5t12.5 -30.5
q0 -28 -28 -40q-35 -14 -67 -41t-32 -60q0 -48 51 -48q15 0 35 6q6 2 9 2q10 0 16 -6t6 -16t-11 -18q-34 -24 -86 -24q-38 0 -65.5 23z" />
    <glyph glyph-name="eogonek" unicode="&#x119;" horiz-adv-x="566" 
d="M309.5 -180q-27.5 23 -27.5 61q0 64 69 109h-44q-122 0 -190.5 69.5t-68.5 195.5q0 71 26 131t80 97t133 37q74 0 128 -34.5t82 -92t28 -125.5q0 -19 -12.5 -32t-33.5 -13h-339q8 -70 52 -109t123 -39q42 0 73.5 8t61.5 23q8 4 18 4q16 0 28 -11t12 -28q0 -21 -30 -40
q-61 -40 -92 -69.5t-31 -61.5q0 -47 51 -47q15 0 35 6q6 2 9 2q10 0 16 -6t6 -16t-11 -18q-34 -24 -86 -24q-38 0 -65.5 23zM435 297q-3 49 -25.5 82t-55.5 48.5t-67 15.5t-67 -15.5t-55 -48.5t-25 -82h295z" />
    <glyph glyph-name="Ecaron" unicode="&#x11a;" horiz-adv-x="638" 
d="M110 13q-13 13 -13 32v607q0 19 13 32.5t32 13.5h401q18 0 30.5 -12.5t12.5 -30.5t-12.5 -30t-30.5 -12h-355v-221h319q18 0 30.5 -12.5t12.5 -30.5t-12.5 -30t-30.5 -12h-319v-222h355q18 0 30.5 -12.5t12.5 -30.5t-12.5 -30t-30.5 -12h-401q-19 0 -32 13zM301 744
q-9 5 -18 15l-68 70q-8 8 -8 19q-1 11 8 20.5t22 9.5q11 0 18 -7l87 -74l87 74q7 7 18 7q13 0 22 -9.5t8 -20.5q0 -11 -8 -19l-68 -70q-9 -10 -18 -15t-22 -5h-38q-13 0 -22 5z" />
    <glyph glyph-name="ecaron" unicode="&#x11b;" horiz-adv-x="566" 
d="M116.5 59.5q-68.5 69.5 -68.5 195.5q0 71 26 131t80 97t133 37q74 0 128 -34.5t82 -92t28 -125.5q0 -19 -12.5 -32t-33.5 -13h-339q8 -70 52 -109t123 -39q42 0 73.5 8t61.5 23q8 4 18 4q16 0 28 -11t12 -28q0 -22 -26 -37q-39 -22 -77 -33t-98 -11q-122 0 -190.5 69.5z
M435 297q-3 49 -25.5 82t-55.5 48.5t-67 15.5t-67 -15.5t-55 -48.5t-25 -82h295zM244 572q-9 5 -18 15l-68 70q-8 8 -8 19q-1 11 8 20.5t22 9.5q11 0 18 -7l87 -74l87 74q7 7 18 7q13 0 22 -9.5t8 -20.5q0 -11 -8 -19l-68 -70q-9 -10 -18 -15t-22 -5h-38q-13 0 -22 5z" />
    <glyph glyph-name="Gcircumflex" unicode="&#x11c;" horiz-adv-x="757" 
d="M223 35.5q-80 45.5 -124 127t-44 185.5q0 106 46 188t125.5 127t176.5 45q78 0 136.5 -19t112.5 -53q8 -4 14 -14t6 -22q0 -17 -11.5 -29t-30.5 -12q-11 0 -21 5q-47 28 -94 42t-102 14q-76 0 -137 -32t-95.5 -93.5t-34.5 -146.5q0 -78 32.5 -139.5t94 -97t145.5 -35.5
q94 0 175 44v181h-165q-17 0 -29 12t-12 29t12 29t29 12h197q20 0 34 -14t14 -34v-227q0 -21 -10.5 -37.5t-27.5 -24.5q-112 -56 -229 -56q-103 0 -183 45.5zM279 747.5q-9 9.5 -8 20.5q0 11 8 19l68 70q9 10 18 15t22 5h38q13 0 22 -5t18 -15l68 -70q8 -8 8 -19
q1 -11 -8 -20.5t-22 -9.5q-11 0 -18 7l-87 74l-87 -74q-7 -7 -18 -7q-13 0 -22 9.5z" />
    <glyph glyph-name="gcircumflex" unicode="&#x11d;" horiz-adv-x="631" 
d="M200 -225q-59 15 -97 37q-18 11 -18 35q0 16 11.5 28.5t28.5 12.5q8 0 18 -4q76 -38 165 -38q153 0 153 163v67q-71 -76 -171 -76q-59 0 -114.5 29.5t-91.5 88t-36 142.5t36 142.5t91.5 88t114.5 29.5q100 0 171 -76v25q0 19 13 32.5t32 13.5t32.5 -13.5t13.5 -32.5v-447
q0 -126 -61 -194t-174 -68q-58 0 -117 15zM392 103q36 20 69 54v206q-33 34 -69 54t-83 20q-75 0 -122.5 -45.5t-47.5 -131.5t47.5 -131.5t122.5 -45.5q47 0 83 20zM189 575.5q-9 9.5 -8 20.5q0 11 8 19l68 70q9 10 18 15t22 5h38q13 0 22 -5t18 -15l68 -70q8 -8 8 -19
q1 -11 -8 -20.5t-22 -9.5q-11 0 -18 7l-87 74l-87 -74q-7 -7 -18 -7q-13 0 -22 9.5z" />
    <glyph glyph-name="Gbreve" unicode="&#x11e;" horiz-adv-x="757" 
d="M223 35.5q-80 45.5 -124 127t-44 185.5q0 106 46 188t125.5 127t176.5 45q78 0 136.5 -19t112.5 -53q8 -4 14 -14t6 -22q0 -17 -11.5 -29t-30.5 -12q-11 0 -21 5q-47 28 -94 42t-102 14q-76 0 -137 -32t-95.5 -93.5t-34.5 -146.5q0 -78 32.5 -139.5t94 -97t145.5 -35.5
q94 0 175 44v181h-165q-17 0 -29 12t-12 29t12 29t29 12h197q20 0 34 -14t14 -34v-227q0 -21 -10.5 -37.5t-27.5 -24.5q-112 -56 -229 -56q-103 0 -183 45.5zM322 770q-37 22 -56 59q-3 6 -3 14q0 13 8.5 22t22.5 9q19 0 28 -19q11 -23 33 -36t51 -13t51 13t33 36
q9 19 28 19q14 0 22.5 -9t8.5 -22q0 -8 -3 -14q-19 -37 -56 -59t-84 -22t-84 22z" />
    <glyph glyph-name="gbreve" unicode="&#x11f;" horiz-adv-x="631" 
d="M200 -225q-59 15 -97 37q-18 11 -18 35q0 16 11.5 28.5t28.5 12.5q8 0 18 -4q76 -38 165 -38q153 0 153 163v67q-71 -76 -171 -76q-59 0 -114.5 29.5t-91.5 88t-36 142.5t36 142.5t91.5 88t114.5 29.5q100 0 171 -76v25q0 19 13 32.5t32 13.5t32.5 -13.5t13.5 -32.5v-447
q0 -126 -61 -194t-174 -68q-58 0 -117 15zM392 103q36 20 69 54v206q-33 34 -69 54t-83 20q-75 0 -122.5 -45.5t-47.5 -131.5t47.5 -131.5t122.5 -45.5q47 0 83 20zM230.5 597.5q-37.5 21.5 -54.5 59.5q-3 6 -3 14q0 13 8.5 22t22.5 9q19 0 28 -19q11 -23 33 -36t51 -13
t51 13t33 36q9 19 28 19q14 0 22.5 -9t8.5 -22q0 -8 -3 -14q-17 -38 -54.5 -59.5t-85.5 -21.5t-85.5 21.5z" />
    <glyph glyph-name="Gdotaccent" unicode="&#x120;" horiz-adv-x="757" 
d="M223 35.5q-80 45.5 -124 127t-44 185.5q0 106 46 188t125.5 127t176.5 45q78 0 136.5 -19t112.5 -53q8 -4 14 -14t6 -22q0 -17 -11.5 -29t-30.5 -12q-11 0 -21 5q-47 28 -94 42t-102 14q-76 0 -137 -32t-95.5 -93.5t-34.5 -146.5q0 -78 32.5 -139.5t94 -97t145.5 -35.5
q94 0 175 44v181h-165q-17 0 -29 12t-12 29t12 29t29 12h197q20 0 34 -14t14 -34v-227q0 -21 -10.5 -37.5t-27.5 -24.5q-112 -56 -229 -56q-103 0 -183 45.5zM370 762q-15 15 -15 36t15 36t36 15t36 -15t15 -36t-15 -36t-36 -15t-36 15z" />
    <glyph glyph-name="gdotaccent" unicode="&#x121;" horiz-adv-x="631" 
d="M200 -225q-59 15 -97 37q-18 11 -18 35q0 16 11.5 28.5t28.5 12.5q8 0 18 -4q76 -38 165 -38q153 0 153 163v67q-71 -76 -171 -76q-59 0 -114.5 29.5t-91.5 88t-36 142.5t36 142.5t91.5 88t114.5 29.5q100 0 171 -76v25q0 19 13 32.5t32 13.5t32.5 -13.5t13.5 -32.5v-447
q0 -126 -61 -194t-174 -68q-58 0 -117 15zM392 103q36 20 69 54v206q-33 34 -69 54t-83 20q-75 0 -122.5 -45.5t-47.5 -131.5t47.5 -131.5t122.5 -45.5q47 0 83 20zM280 590q-15 15 -15 36t15 36t36 15t36 -15t15 -36t-15 -36t-36 -15t-36 15z" />
    <glyph glyph-name="Gcommaaccent" unicode="&#x122;" horiz-adv-x="757" 
d="M223 35.5q-80 45.5 -124 127t-44 185.5q0 106 46 188t125.5 127t176.5 45q78 0 136.5 -19t112.5 -53q8 -4 14 -14t6 -22q0 -17 -11.5 -29t-30.5 -12q-11 0 -21 5q-47 28 -94 42t-102 14q-76 0 -137 -32t-95.5 -93.5t-34.5 -146.5q0 -78 32.5 -139.5t94 -97t145.5 -35.5
q94 0 175 44v181h-165q-17 0 -29 12t-12 29t12 29t29 12h197q20 0 34 -14t14 -34v-227q0 -21 -10.5 -37.5t-27.5 -24.5q-112 -56 -229 -56q-103 0 -183 45.5zM360.5 -256.5q-6.5 6.5 -6.5 16.5q0 13 12 21q21 13 32 25.5t11 30.5q-22 0 -35.5 13.5t-13.5 34.5t14.5 36
t35.5 15q22 0 36 -15t14 -38v-33q0 -39 -19 -64.5t-49 -43.5q-8 -5 -16 -5q-9 0 -15.5 6.5z" />
    <glyph glyph-name="gcommaaccent" unicode="&#x123;" horiz-adv-x="631" 
d="M200 -225q-59 15 -97 37q-18 11 -18 35q0 16 11.5 28.5t28.5 12.5q8 0 18 -4q76 -38 165 -38q153 0 153 163v67q-71 -76 -171 -76q-59 0 -114.5 29.5t-91.5 88t-36 142.5t36 142.5t91.5 88t114.5 29.5q100 0 171 -76v25q0 19 13 32.5t32 13.5t32.5 -13.5t13.5 -32.5v-447
q0 -126 -61 -194t-174 -68q-58 0 -117 15zM392 103q36 20 69 54v206q-33 34 -69 54t-83 20q-75 0 -122.5 -45.5t-47.5 -131.5t47.5 -131.5t122.5 -45.5q47 0 83 20zM278 590q-14 15 -14 38v33q0 39 19 64.5t49 43.5q8 5 16 5q9 0 15.5 -6.5t6.5 -16.5q0 -13 -12 -21
q-21 -13 -32 -25.5t-11 -30.5q22 0 35.5 -13.5t13.5 -34.5t-14.5 -36t-35.5 -15q-22 0 -36 15z" />
    <glyph glyph-name="Hcircumflex" unicode="&#x124;" horiz-adv-x="755" 
d="M110 8q-13 13 -13 32v617q0 19 13 32.5t32 13.5t32.5 -13.5t13.5 -32.5v-266h379v266q0 19 13 32.5t32 13.5t32.5 -13.5t13.5 -32.5v-617q0 -19 -13.5 -32t-32.5 -13t-32 13t-13 32v266h-379v-266q0 -19 -13.5 -32t-32.5 -13t-32 13zM251 747.5q-9 9.5 -8 20.5q0 11 8 19
l68 70q9 10 18 15t22 5h38q13 0 22 -5t18 -15l68 -70q8 -8 8 -19q1 -11 -8 -20.5t-22 -9.5q-11 0 -18 7l-87 74l-87 -74q-7 -7 -18 -7q-13 0 -22 9.5z" />
    <glyph glyph-name="hcircumflex" unicode="&#x125;" horiz-adv-x="609" 
d="M92 8q-13 13 -13 32v649q0 19 13 32.5t32 13.5t32.5 -13.5t13.5 -32.5v-261q38 42 82 67t104 25q55 0 95.5 -26t62 -71t21.5 -99v-284q0 -19 -13.5 -32t-32.5 -13t-32 13t-13 32v274q0 122 -110 122q-50 0 -89.5 -26t-74.5 -70v-300q0 -19 -13.5 -32t-32.5 -13t-32 13z
M180 781.5q-9 9.5 -8 20.5q0 11 8 19l68 70q9 10 18 15t22 5h38q13 0 22 -5t18 -15l68 -70q8 -8 8 -19q1 -11 -8 -20.5t-22 -9.5q-11 0 -18 7l-87 74l-87 -74q-7 -7 -18 -7q-13 0 -22 9.5z" />
    <glyph glyph-name="Hbar" unicode="&#x126;" horiz-adv-x="765" 
d="M115 8q-13 13 -13 32v471h-45q-15 0 -25 10t-10 25q0 16 10.5 26t24.5 10h45v75q0 19 13 32.5t32 13.5t32.5 -13.5t13.5 -32.5v-75h379v75q0 19 13 32.5t32 13.5t32.5 -13.5t13.5 -32.5v-75h44q15 0 25.5 -10.5t10.5 -25.5t-10.5 -25t-25.5 -10h-44v-471q0 -19 -13.5 -32
t-32.5 -13t-32 13t-13 32v266h-379v-266q0 -19 -13.5 -32t-32.5 -13t-32 13zM193 391h379v120h-379v-120z" />
    <glyph glyph-name="hbar" unicode="&#x127;" horiz-adv-x="614" 
d="M97 8q-13 13 -13 32v533h-47q-14 0 -23.5 9.5t-9.5 23.5t9.5 24t23.5 10h47v49q0 19 13 32.5t32 13.5t32.5 -13.5t13.5 -32.5v-49h116q14 0 24 -10t10 -24t-10 -23.5t-24 -9.5h-116v-145q38 42 82 67t104 25q55 0 95.5 -26t62 -71t21.5 -99v-284q0 -19 -13.5 -32
t-32.5 -13t-32 13t-13 32v274q0 122 -110 122q-50 0 -89.5 -26t-74.5 -70v-300q0 -19 -13.5 -32t-32.5 -13t-32 13z" />
    <glyph glyph-name="Itilde" unicode="&#x128;" horiz-adv-x="285" 
d="M110 8q-13 13 -13 32v617q0 19 13 32.5t32 13.5t32.5 -13.5t13.5 -32.5v-617q0 -19 -13.5 -32t-32.5 -13t-32 13zM-11 749.5q-7 6.5 -7 16.5q0 21 10.5 43t29.5 37t44 15q20 0 37.5 -6t42.5 -18q23 -11 39.5 -17t34.5 -6q15 0 23.5 7t13.5 20q8 21 25 21q10 0 16 -6.5
t7 -15.5q0 -35 -24 -65t-60 -30q-20 0 -38 6.5t-44 18.5q-23 11 -39 17t-33 6q-26 0 -39 -32q-6 -18 -23 -18q-9 0 -16 6.5z" />
    <glyph glyph-name="itilde" unicode="&#x129;" horiz-adv-x="249" 
d="M92 8q-13 13 -13 32v429q0 19 13 32.5t32 13.5q20 0 33 -13t13 -33v-429q0 -19 -13.5 -32t-32.5 -13t-32 13zM-29 577.5q-7 6.5 -7 16.5q0 21 10.5 43t29.5 37t44 15q20 0 37.5 -6t42.5 -18q23 -11 39.5 -17t34.5 -6q15 0 23.5 7t13.5 20q8 21 25 21q10 0 16 -6.5
t7 -15.5q0 -35 -24 -65t-60 -30q-20 0 -38 6.5t-44 18.5q-23 11 -39 17t-33 6q-26 0 -39 -32q-6 -18 -23 -18q-9 0 -16 6.5z" />
    <glyph glyph-name="Imacron" unicode="&#x12a;" horiz-adv-x="285" 
d="M110 8q-13 13 -13 32v617q0 19 13 32.5t32 13.5t32.5 -13.5t13.5 -32.5v-617q0 -19 -13.5 -32t-32.5 -13t-32 13zM4.5 768.5q-8.5 8.5 -8.5 21.5t8.5 21.5t21.5 8.5h234q13 0 21.5 -8.5t8.5 -21.5t-8.5 -21.5t-21.5 -8.5h-234q-13 0 -21.5 8.5z" />
    <glyph glyph-name="imacron" unicode="&#x12b;" horiz-adv-x="249" 
d="M92 8q-13 13 -13 32v429q0 19 13 32.5t32 13.5q20 0 33 -13t13 -33v-429q0 -19 -13.5 -32t-32.5 -13t-32 13zM-13.5 596.5q-8.5 8.5 -8.5 21.5t8.5 21.5t21.5 8.5h234q13 0 21.5 -8.5t8.5 -21.5t-8.5 -21.5t-21.5 -8.5h-234q-13 0 -21.5 8.5z" />
    <glyph glyph-name="Ibreve" unicode="&#x12c;" horiz-adv-x="285" 
d="M110 8q-13 13 -13 32v617q0 19 13 32.5t32 13.5t32.5 -13.5t13.5 -32.5v-617q0 -19 -13.5 -32t-32.5 -13t-32 13zM59 770q-37 22 -56 59q-3 6 -3 14q0 13 8.5 22t22.5 9q19 0 28 -19q11 -23 33 -36t51 -13t51 13t33 36q9 19 28 19q14 0 22.5 -9t8.5 -22q0 -8 -3 -14
q-19 -37 -56 -59t-84 -22t-84 22z" />
    <glyph glyph-name="ibreve" unicode="&#x12d;" horiz-adv-x="249" 
d="M92 8q-13 13 -13 32v429q0 19 13 32.5t32 13.5q20 0 33 -13t13 -33v-429q0 -19 -13.5 -32t-32.5 -13t-32 13zM39.5 597.5q-37.5 21.5 -54.5 59.5q-3 6 -3 14q0 13 8.5 22t22.5 9q19 0 28 -19q11 -23 33 -36t51 -13t51 13t33 36q9 19 28 19q14 0 22.5 -9t8.5 -22
q0 -8 -3 -14q-17 -38 -54.5 -59.5t-85.5 -21.5t-85.5 21.5z" />
    <glyph glyph-name="Iogonek" unicode="&#x12e;" horiz-adv-x="285" 
d="M75 -177.5q-29 25.5 -29 68.5q0 34 19 63t51 50q-19 13 -19 36v617q0 19 13 32.5t32 13.5t32.5 -13.5t13.5 -32.5v-607q0 -13 -2.5 -21.5t-9.5 -18.5q-3 -5 -13 -15q-20 -23 -32 -43t-12 -49q0 -23 13 -36.5t38 -13.5q15 0 35 6q6 2 9 2q10 0 16 -6t6 -16t-11 -18
q-34 -24 -76 -24q-45 0 -74 25.5z" />
    <glyph glyph-name="iogonek" unicode="&#x12f;" horiz-adv-x="249" 
d="M89 590q-15 15 -15 36t15 36t36 15t36 -15t15 -36t-15 -36t-36 -15t-36 15zM57 -177.5q-29 25.5 -29 68.5q0 34 19 63t51 50q-19 13 -19 36v429q0 19 13 32.5t32 13.5t32.5 -13.5t13.5 -32.5v-419q0 -13 -2.5 -21.5t-9.5 -18.5q-3 -5 -13 -15q-20 -23 -32 -43t-12 -49
q0 -23 13 -36.5t38 -13.5q15 0 35 6q6 2 9 2q10 0 16 -6t6 -16t-11 -18q-34 -24 -76 -24q-45 0 -74 25.5z" />
    <glyph glyph-name="Idotaccent" unicode="&#x130;" horiz-adv-x="285" 
d="M110 8q-13 13 -13 32v617q0 19 13 32.5t32 13.5t32.5 -13.5t13.5 -32.5v-617q0 -19 -13.5 -32t-32.5 -13t-32 13zM107 762q-15 15 -15 36t15 36t36 15t36 -15t15 -36t-15 -36t-36 -15t-36 15z" />
    <glyph glyph-name="dotlessi" unicode="&#x131;" horiz-adv-x="249" 
d="M92 8q-13 13 -13 32v429q0 19 13 32.5t32 13.5q20 0 33 -13t13 -33v-429q0 -19 -13.5 -32t-32.5 -13t-32 13z" />
    <glyph glyph-name="Jcircumflex" unicode="&#x134;" horiz-adv-x="466" 
d="M35 24q-22 13 -22 37q0 16 10.5 28.5t27.5 12.5q10 0 18 -4q46 -22 93 -22q54 0 87.5 31t33.5 117v433q0 19 13 32.5t32 13.5t32.5 -13.5t13.5 -32.5v-427q0 -131 -58.5 -185.5t-147.5 -54.5q-73 0 -133 34zM201 747.5q-9 9.5 -8 20.5q0 11 8 19l68 70q9 10 18 15t22 5
h38q13 0 22 -5t18 -15l68 -70q8 -8 8 -19q1 -11 -8 -20.5t-22 -9.5q-11 0 -18 7l-87 74l-87 -74q-7 -7 -18 -7q-13 0 -22 9.5z" />
    <glyph glyph-name="jcircumflex" unicode="&#x135;" horiz-adv-x="254" 
d="M-19 -231q-12 4 -19 13.5t-7 22.5q0 15 11 26.5t27 11.5q6 0 15 -1.5t15 -1.5q31 0 46 11t15 48v569q0 19 13 32.5t32 13.5q20 0 33 -13t13 -33v-571q0 -62 -31.5 -99.5t-99.5 -37.5q-36 0 -63 9zM3 575.5q-9 9.5 -8 20.5q0 11 8 19l68 70q9 10 18 15t22 5h38q13 0 22 -5
t18 -15l68 -70q8 -8 8 -19q1 -11 -8 -20.5t-22 -9.5q-11 0 -18 7l-87 74l-87 -74q-7 -7 -18 -7q-13 0 -22 9.5z" />
    <glyph glyph-name="Kcommaaccent" unicode="&#x136;" horiz-adv-x="670" 
d="M110 8q-13 13 -13 32v617q0 19 13 32.5t32 13.5t32.5 -13.5t13.5 -32.5v-318l342 348q14 16 34 16q17 0 29.5 -11.5t12.5 -28.5q0 -20 -11 -31l-231 -230l265 -334q11 -14 11 -29q1 -18 -12 -31t-32 -13q-23 0 -36 18l-258 329l-114 -115v-187q0 -19 -13.5 -32t-32.5 -13
t-32 13zM289.5 -256.5q-6.5 6.5 -6.5 16.5q0 13 12 21q21 13 32 25.5t11 30.5q-22 0 -35.5 13.5t-13.5 34.5t14.5 36t35.5 15q22 0 36 -15t14 -38v-33q0 -39 -19 -64.5t-49 -43.5q-8 -5 -16 -5q-9 0 -15.5 6.5z" />
    <glyph glyph-name="kcommaaccent" unicode="&#x137;" horiz-adv-x="545" 
d="M92 8q-13 13 -13 32v649q0 19 13 32.5t32 13.5t32.5 -13.5t13.5 -32.5v-409l238 220q15 13 30 13q23 0 33.5 -13t10.5 -31q0 -17 -17 -34l-144 -129l181 -240q10 -13 10 -27q0 -20 -13 -32t-33 -12q-10 0 -20 5t-17 14l-172 234l-87 -79v-129q0 -19 -13.5 -32t-32.5 -13
t-32 13zM227.5 -256.5q-6.5 6.5 -6.5 16.5q0 13 12 21q21 13 32 25.5t11 30.5q-22 0 -35.5 13.5t-13.5 34.5t14.5 36t35.5 15q22 0 36 -15t14 -38v-33q0 -39 -19 -64.5t-49 -43.5q-8 -5 -16 -5q-9 0 -15.5 6.5z" />
    <glyph glyph-name="kgreenlandic" unicode="&#x138;" horiz-adv-x="545" 
d="M92 8q-13 13 -13 32v429q0 19 13 32.5t32 13.5t32.5 -13.5t13.5 -32.5v-189l238 220q15 13 30 13q23 0 33.5 -13t10.5 -31q0 -17 -17 -34l-144 -129l181 -240q10 -13 10 -27q0 -20 -13 -32t-33 -12q-10 0 -20 5t-17 14l-172 234l-87 -79v-129q0 -19 -13.5 -32t-32.5 -13
t-32 13z" />
    <glyph glyph-name="Lacute" unicode="&#x139;" horiz-adv-x="576" 
d="M115.5 18.5q-18.5 18.5 -18.5 44.5v594q0 19 13 32.5t32 13.5t32.5 -13.5t13.5 -32.5v-566h327q19 0 32.5 -13.5t13.5 -32.5t-13.5 -32t-32.5 -13h-355q-26 0 -44.5 18.5zM122.5 746.5q-7.5 7.5 -7.5 19.5q0 9 7 19l51 90q10 19 33 19q16 0 26.5 -10t10.5 -27
q0 -14 -10 -25l-69 -82q-9 -11 -22 -11q-12 0 -19.5 7.5z" />
    <glyph glyph-name="lacute" unicode="&#x13a;" horiz-adv-x="249" 
d="M92 8q-13 13 -13 32v649q0 19 13 32.5t32 13.5q20 0 33 -13t13 -33v-649q0 -19 -13.5 -32t-32.5 -13t-32 13zM105.5 780.5q-7.5 7.5 -7.5 19.5q0 9 7 19l51 90q10 19 33 19q16 0 26.5 -10t10.5 -27q0 -14 -10 -25l-69 -82q-9 -11 -22 -11q-12 0 -19.5 7.5z" />
    <glyph glyph-name="Lcommaaccent" unicode="&#x13b;" horiz-adv-x="576" 
d="M115.5 18.5q-18.5 18.5 -18.5 44.5v594q0 19 13 32.5t32 13.5t32.5 -13.5t13.5 -32.5v-566h327q19 0 32.5 -13.5t13.5 -32.5t-13.5 -32t-32.5 -13h-355q-26 0 -44.5 18.5zM283.5 -256.5q-6.5 6.5 -6.5 16.5q0 13 12 21q21 13 32 25.5t11 30.5q-22 0 -35.5 13.5
t-13.5 34.5t14.5 36t35.5 15q22 0 36 -15t14 -38v-33q0 -39 -19 -64.5t-49 -43.5q-8 -5 -16 -5q-9 0 -15.5 6.5z" />
    <glyph glyph-name="lcommaaccent" unicode="&#x13c;" horiz-adv-x="249" 
d="M92 8q-13 13 -13 32v649q0 19 13 32.5t32 13.5q20 0 33 -13t13 -33v-649q0 -19 -13.5 -32t-32.5 -13t-32 13zM79.5 -256.5q-6.5 6.5 -6.5 16.5q0 13 12 21q21 13 32 25.5t11 30.5q-22 0 -35.5 13.5t-13.5 34.5t14.5 36t35.5 15q22 0 36 -15t14 -38v-33q0 -39 -19 -64.5
t-49 -43.5q-8 -5 -16 -5q-9 0 -15.5 6.5z" />
    <glyph glyph-name="Lcaron" unicode="&#x13d;" horiz-adv-x="576" 
d="M115.5 18.5q-18.5 18.5 -18.5 44.5v594q0 19 13 32.5t32 13.5t32.5 -13.5t13.5 -32.5v-566h327q19 0 32.5 -13.5t13.5 -32.5t-13.5 -32t-32.5 -13h-355q-26 0 -44.5 18.5zM308 493q-7 7 -7 19q0 7 4 12t11 11q20 14 30 26t10 31q-24 0 -39.5 14.5t-15.5 37.5
q0 24 16 40.5t40 16.5t39.5 -16.5t15.5 -41.5v-37q0 -31 -13 -51t-31.5 -38t-24.5 -24q-7 -7 -19 -7q-9 0 -16 7z" />
    <glyph glyph-name="lcaron" unicode="&#x13e;" horiz-adv-x="249" 
d="M92 8q-13 13 -13 32v649q0 19 13 32.5t32 13.5q20 0 33 -13t13 -33v-649q0 -19 -13.5 -32t-32.5 -13t-32 13zM206 560q-6 6 -6 16t13 19q16 12 24.5 22t8.5 26q-20 0 -33 12.5t-13 31.5q0 20 13.5 34t33.5 14q21 0 33.5 -14t12.5 -35v-31q0 -31 -14 -52t-44 -43
q-6 -6 -16 -6q-7 0 -13 6z" />
    <glyph glyph-name="Ldot" unicode="&#x13f;" horiz-adv-x="576" 
d="M115.5 18.5q-18.5 18.5 -18.5 44.5v594q0 19 13 32.5t32 13.5t32.5 -13.5t13.5 -32.5v-566h327q19 0 32.5 -13.5t13.5 -32.5t-13.5 -32t-32.5 -13h-355q-26 0 -44.5 18.5zM377.5 352.5q-16.5 16.5 -16.5 39.5v6q0 23 16.5 39.5t39.5 16.5h10q23 0 39.5 -16.5t16.5 -39.5
v-6q0 -23 -16.5 -39.5t-39.5 -16.5h-10q-23 0 -39.5 16.5z" />
    <glyph glyph-name="ldot" unicode="&#x140;" horiz-adv-x="269" 
d="M92 8q-13 13 -13 32v649q0 19 13 32.5t32 13.5q20 0 33 -13t13 -33v-649q0 -19 -13.5 -32t-32.5 -13t-32 13zM224 331q-15 15 -15 36t15 36t36 15t36 -15t15 -36t-15 -36t-36 -15t-36 15z" />
    <glyph glyph-name="Lslash" unicode="&#x141;" horiz-adv-x="581" 
d="M120.5 18.5q-18.5 18.5 -18.5 44.5v239l-17 -17q-14 -14 -30 -14q-14 0 -24 9.5t-10 23.5q0 16 14 30l67 67v256q0 19 13 32.5t32 13.5t32.5 -13.5t13.5 -32.5v-164l60 60q12 12 27 12q14 0 24.5 -10.5t10.5 -24.5q0 -15 -14 -29l-108 -108v-302h327q19 0 32.5 -13.5
t13.5 -32.5t-13.5 -32t-32.5 -13h-355q-26 0 -44.5 18.5z" />
    <glyph glyph-name="lslash" unicode="&#x142;" horiz-adv-x="259" 
d="M97 8q-13 13 -13 32v261l-23 -23q-10 -10 -23 -10t-23.5 10.5t-10.5 24.5q0 13 10 23l70 70v293q0 19 13 32.5t32 13.5q20 0 33 -13t13 -33v-201l21 21q10 10 23 10q14 0 25 -10.5t11 -23.5t-11 -24l-69 -69v-352q0 -19 -13.5 -32t-32.5 -13t-32 13z" />
    <glyph glyph-name="Nacute" unicode="&#x143;" horiz-adv-x="803" 
d="M110 8q-13 13 -13 32v597q0 27 19 46.5t46 19.5h13q32 0 55 -30l385 -556v540q0 19 13 32.5t32 13.5t32.5 -13.5t13.5 -32.5v-597q0 -27 -19.5 -46t-46.5 -19h-12q-16 0 -30 7.5t-23 19.5l-387 559v-541q0 -19 -13.5 -32t-32.5 -13t-32 13zM382.5 746.5
q-7.5 7.5 -7.5 19.5q0 9 7 19l51 90q10 19 33 19q16 0 26.5 -10t10.5 -27q0 -14 -10 -25l-69 -82q-9 -11 -22 -11q-12 0 -19.5 7.5z" />
    <glyph glyph-name="nacute" unicode="&#x144;" horiz-adv-x="609" 
d="M92 8q-13 13 -13 32v429q0 19 13 32.5t32 13.5t32.5 -13.5t13.5 -32.5v-41q38 42 82 67t104 25q55 0 95.5 -26t62 -71t21.5 -99v-284q0 -19 -13.5 -32t-32.5 -13t-32 13t-13 32v274q0 122 -110 122q-50 0 -89.5 -26t-74.5 -70v-300q0 -19 -13.5 -32t-32.5 -13t-32 13z
M285.5 574.5q-7.5 7.5 -7.5 19.5q0 9 7 19l51 90q10 19 33 19q16 0 26.5 -10t10.5 -27q0 -14 -10 -25l-69 -82q-9 -11 -22 -11q-12 0 -19.5 7.5z" />
    <glyph glyph-name="Ncommaaccent" unicode="&#x145;" horiz-adv-x="803" 
d="M110 8q-13 13 -13 32v597q0 27 19 46.5t46 19.5h13q32 0 55 -30l385 -556v540q0 19 13 32.5t32 13.5t32.5 -13.5t13.5 -32.5v-597q0 -27 -19.5 -46t-46.5 -19h-12q-16 0 -30 7.5t-23 19.5l-387 559v-541q0 -19 -13.5 -32t-32.5 -13t-32 13zM356.5 -256.5
q-6.5 6.5 -6.5 16.5q0 13 12 21q21 13 32 25.5t11 30.5q-22 0 -35.5 13.5t-13.5 34.5t14.5 36t35.5 15q22 0 36 -15t14 -38v-33q0 -39 -19 -64.5t-49 -43.5q-8 -5 -16 -5q-9 0 -15.5 6.5z" />
    <glyph glyph-name="ncommaaccent" unicode="&#x146;" horiz-adv-x="609" 
d="M92 8q-13 13 -13 32v429q0 19 13 32.5t32 13.5t32.5 -13.5t13.5 -32.5v-41q38 42 82 67t104 25q55 0 95.5 -26t62 -71t21.5 -99v-284q0 -19 -13.5 -32t-32.5 -13t-32 13t-13 32v274q0 122 -110 122q-50 0 -89.5 -26t-74.5 -70v-300q0 -19 -13.5 -32t-32.5 -13t-32 13z
M259.5 -256.5q-6.5 6.5 -6.5 16.5q0 13 12 21q21 13 32 25.5t11 30.5q-22 0 -35.5 13.5t-13.5 34.5t14.5 36t35.5 15q22 0 36 -15t14 -38v-33q0 -39 -19 -64.5t-49 -43.5q-8 -5 -16 -5q-9 0 -15.5 6.5z" />
    <glyph glyph-name="Ncaron" unicode="&#x147;" horiz-adv-x="803" 
d="M110 8q-13 13 -13 32v597q0 27 19 46.5t46 19.5h13q32 0 55 -30l385 -556v540q0 19 13 32.5t32 13.5t32.5 -13.5t13.5 -32.5v-597q0 -27 -19.5 -46t-46.5 -19h-12q-16 0 -30 7.5t-23 19.5l-387 559v-541q0 -19 -13.5 -32t-32.5 -13t-32 13zM361 744q-9 5 -18 15l-68 70
q-8 8 -8 19q-1 11 8 20.5t22 9.5q11 0 18 -7l87 -74l87 74q7 7 18 7q13 0 22 -9.5t8 -20.5q0 -11 -8 -19l-68 -70q-9 -10 -18 -15t-22 -5h-38q-13 0 -22 5z" />
    <glyph glyph-name="ncaron" unicode="&#x148;" horiz-adv-x="609" 
d="M92 8q-13 13 -13 32v429q0 19 13 32.5t32 13.5t32.5 -13.5t13.5 -32.5v-41q38 42 82 67t104 25q55 0 95.5 -26t62 -71t21.5 -99v-284q0 -19 -13.5 -32t-32.5 -13t-32 13t-13 32v274q0 122 -110 122q-50 0 -89.5 -26t-74.5 -70v-300q0 -19 -13.5 -32t-32.5 -13t-32 13z
M264 572q-9 5 -18 15l-68 70q-8 8 -8 19q-1 11 8 20.5t22 9.5q11 0 18 -7l87 -74l87 74q7 7 18 7q13 0 22 -9.5t8 -20.5q0 -11 -8 -19l-68 -70q-9 -10 -18 -15t-22 -5h-38q-13 0 -22 5z" />
    <glyph glyph-name="napostrophe" unicode="&#x149;" horiz-adv-x="609" 
d="M-14 560q-6 6 -6 16t13 19q16 12 24.5 22t8.5 26q-20 0 -33 12.5t-13 31.5q0 20 13.5 34t33.5 14q21 0 33.5 -14t12.5 -35v-31q0 -31 -14 -52t-44 -43q-6 -6 -16 -6q-7 0 -13 6zM92 8q-13 13 -13 32v429q0 19 13 32.5t32 13.5t32.5 -13.5t13.5 -32.5v-41q38 42 82 67
t104 25q55 0 95.5 -26t62 -71t21.5 -99v-284q0 -19 -13.5 -32t-32.5 -13t-32 13t-13 32v274q0 122 -110 122q-50 0 -89.5 -26t-74.5 -70v-300q0 -19 -13.5 -32t-32.5 -13t-32 13z" />
    <glyph glyph-name="Eng" unicode="&#x14a;" horiz-adv-x="803" 
d="M512 -231q-12 4 -19 13.5t-7 22.5q0 15 11 26.5t27 11.5q6 0 15 -1.5t15 -1.5q29 0 45 17t16 62v65l-427 597v-541q0 -19 -13.5 -32t-32.5 -13t-32 13t-13 32v597q0 27 19 46.5t46 19.5h13q32 0 55 -30l385 -536v520q0 19 13 32.5t32 13.5t32.5 -13.5t13.5 -32.5v-740
q0 -71 -31.5 -114t-99.5 -43q-36 0 -63 9z" />
    <glyph glyph-name="eng" unicode="&#x14b;" horiz-adv-x="609" 
d="M341 -231q-12 4 -19 13.5t-7 22.5q0 15 11 26.5t27 11.5q6 0 15 -1.5t15 -1.5q29 0 45 17t16 62v395q0 122 -110 122q-50 0 -89.5 -26t-74.5 -70v-300q0 -19 -13.5 -32t-32.5 -13t-32 13t-13 32v429q0 19 13 32.5t32 13.5t32.5 -13.5t13.5 -32.5v-41q38 42 82 67t104 25
q55 0 95.5 -26t62 -71t21.5 -99v-407q0 -71 -31.5 -114t-99.5 -43q-36 0 -63 9z" />
    <glyph glyph-name="Omacron" unicode="&#x14c;" horiz-adv-x="812" 
d="M222 36q-79 46 -122 127t-45 186q2 105 45 186t122 127t184 46t183.5 -46t122 -127.5t45.5 -185.5q-2 -104 -45.5 -185.5t-122 -127.5t-183.5 -46t-184 46zM545 111q59 36 90 98t31 140t-31 140t-90 98t-139 36q-81 0 -139.5 -36t-89.5 -98t-31 -140t31 -140t89.5 -98
t139.5 -36q80 0 139 36zM267.5 768.5q-8.5 8.5 -8.5 21.5t8.5 21.5t21.5 8.5h234q13 0 21.5 -8.5t8.5 -21.5t-8.5 -21.5t-21.5 -8.5h-234q-13 0 -21.5 8.5z" />
    <glyph glyph-name="omacron" unicode="&#x14d;" horiz-adv-x="608" 
d="M169 23q-58 33 -89.5 93.5t-31.5 138.5t31.5 138.5t89.5 93.5t135 33q76 0 134 -33t90 -93.5t32 -138.5t-32 -138.5t-90 -93.5t-134 -33q-77 0 -135 33zM382.5 92q37.5 19 62 60t24.5 104q0 62 -24.5 103t-62 59.5t-78.5 18.5q-42 0 -79.5 -18.5t-61.5 -59.5t-24 -103
q0 -63 24 -104t61.5 -60t79.5 -19q41 0 78.5 19zM165.5 596.5q-8.5 8.5 -8.5 21.5t8.5 21.5t21.5 8.5h234q13 0 21.5 -8.5t8.5 -21.5t-8.5 -21.5t-21.5 -8.5h-234q-13 0 -21.5 8.5z" />
    <glyph glyph-name="Obreve" unicode="&#x14e;" horiz-adv-x="812" 
d="M222 36q-79 46 -122 127t-45 186q2 105 45 186t122 127t184 46t183.5 -46t122 -127.5t45.5 -185.5q-2 -104 -45.5 -185.5t-122 -127.5t-183.5 -46t-184 46zM545 111q59 36 90 98t31 140t-31 140t-90 98t-139 36q-81 0 -139.5 -36t-89.5 -98t-31 -140t31 -140t89.5 -98
t139.5 -36q80 0 139 36zM322 770q-37 22 -56 59q-3 6 -3 14q0 13 8.5 22t22.5 9q19 0 28 -19q11 -23 33 -36t51 -13t51 13t33 36q9 19 28 19q14 0 22.5 -9t8.5 -22q0 -8 -3 -14q-19 -37 -56 -59t-84 -22t-84 22z" />
    <glyph glyph-name="obreve" unicode="&#x14f;" horiz-adv-x="608" 
d="M169 23q-58 33 -89.5 93.5t-31.5 138.5t31.5 138.5t89.5 93.5t135 33q76 0 134 -33t90 -93.5t32 -138.5t-32 -138.5t-90 -93.5t-134 -33q-77 0 -135 33zM382.5 92q37.5 19 62 60t24.5 104q0 62 -24.5 103t-62 59.5t-78.5 18.5q-42 0 -79.5 -18.5t-61.5 -59.5t-24 -103
q0 -63 24 -104t61.5 -60t79.5 -19q41 0 78.5 19zM218.5 597.5q-37.5 21.5 -54.5 59.5q-3 6 -3 14q0 13 8.5 22t22.5 9q19 0 28 -19q11 -23 33 -36t51 -13t51 13t33 36q9 19 28 19q14 0 22.5 -9t8.5 -22q0 -8 -3 -14q-17 -38 -54.5 -59.5t-85.5 -21.5t-85.5 21.5z" />
    <glyph glyph-name="Ohungarumlaut" unicode="&#x150;" horiz-adv-x="812" 
d="M222 36q-79 46 -122 127t-45 186q2 105 45 186t122 127t184 46t183.5 -46t122 -127.5t45.5 -185.5q-2 -104 -45.5 -185.5t-122 -127.5t-183.5 -46t-184 46zM545 111q59 36 90 98t31 140t-31 140t-90 98t-139 36q-81 0 -139.5 -36t-89.5 -98t-31 -140t31 -140t89.5 -98
t139.5 -36q80 0 139 36zM328 746q-8 7 -8 18q0 5 1 8l27 90q4 15 15 23t23 8q14 0 24.5 -9t10.5 -24q0 -12 -7 -25l-41 -79q-9 -17 -26 -17q-11 0 -19 7zM444 746q-8 7 -8 18q0 5 1 8l27 90q4 15 15 23t23 8q14 0 24.5 -9t10.5 -24q0 -12 -7 -25l-41 -79q-9 -17 -26 -17
q-11 0 -19 7z" />
    <glyph glyph-name="ohungarumlaut" unicode="&#x151;" horiz-adv-x="608" 
d="M169 23q-58 33 -89.5 93.5t-31.5 138.5t31.5 138.5t89.5 93.5t135 33q76 0 134 -33t90 -93.5t32 -138.5t-32 -138.5t-90 -93.5t-134 -33q-77 0 -135 33zM382.5 92q37.5 19 62 60t24.5 104q0 62 -24.5 103t-62 59.5t-78.5 18.5q-42 0 -79.5 -18.5t-61.5 -59.5t-24 -103
q0 -63 24 -104t61.5 -60t79.5 -19q41 0 78.5 19zM226 574q-8 7 -8 18q0 5 1 8l27 90q4 15 15 23t23 8q14 0 24.5 -9t10.5 -24q0 -12 -7 -25l-41 -79q-9 -17 -26 -17q-11 0 -19 7zM342 574q-8 7 -8 18q0 5 1 8l27 90q4 15 15 23t23 8q14 0 24.5 -9t10.5 -24q0 -12 -7 -25
l-41 -79q-9 -17 -26 -17q-11 0 -19 7z" />
    <glyph glyph-name="OE" unicode="&#x152;" horiz-adv-x="1207" 
d="M222 36q-79 46 -122 127t-45 186q2 105 45 186t122 127t184 46q85 0 151 -33.5t109 -95.5v73q0 19 13 32.5t32 13.5h401q18 0 30.5 -12.5t12.5 -30.5t-12.5 -30t-30.5 -12h-355v-221h319q18 0 30.5 -12.5t12.5 -30.5t-12.5 -30t-30.5 -12h-319v-222h355q18 0 30.5 -12.5
t12.5 -30.5t-12.5 -30t-30.5 -12h-401q-19 0 -32 13t-13 32v74q-43 -62 -109 -95.5t-151 -33.5q-105 0 -184 46zM545 111q59 36 90 98t31 140t-31 140t-90 98t-139 36q-81 0 -139.5 -36t-89.5 -98t-31 -140t31 -140t89.5 -98t139.5 -36q80 0 139 36z" />
    <glyph glyph-name="oe" unicode="&#x153;" horiz-adv-x="987" 
d="M933.5 236q-12.5 -13 -33.5 -13h-339q8 -70 52 -109t123 -39q42 0 73.5 8t61.5 23q8 4 18 4q16 0 28 -11t12 -28q0 -22 -26 -37q-39 -22 -77 -33t-98 -11q-75 0 -130.5 29.5t-85.5 85.5q-32 -54 -86 -84.5t-122 -30.5q-77 0 -135 33t-89.5 93.5t-31.5 138.5t31.5 138.5
t89.5 93.5t135 33q68 0 122 -30.5t87 -85.5q28 54 76.5 85t118.5 31q74 0 128 -34.5t82 -92t28 -125.5q0 -19 -12.5 -32zM856 297q-3 49 -25.5 82t-55.5 48.5t-67 15.5t-67 -15.5t-55 -48.5t-25 -82h295zM382.5 92q37.5 19 62 60t24.5 104q0 62 -24.5 103t-62 59.5
t-78.5 18.5q-42 0 -79.5 -18.5t-61.5 -59.5t-24 -103q0 -63 24 -104t61.5 -60t79.5 -19q41 0 78.5 19z" />
    <glyph glyph-name="Racute" unicode="&#x154;" horiz-adv-x="712" 
d="M110 8q-13 13 -13 32v612q0 19 13 32.5t32 13.5h233q136 0 204 -56t68 -147q0 -60 -33.5 -109.5t-97.5 -71.5q72 -19 98.5 -89.5t26.5 -138.5v-46q0 -19 -13 -32t-32 -13q-21 0 -33.5 12.5t-12.5 32.5v30q0 50 -9 92.5t-43 76t-103 33.5h-207v-232q0 -19 -13.5 -32
t-32.5 -13t-32 13zM369 358q86 0 136.5 34t50.5 96q0 60 -43.5 92t-148.5 32h-176v-254h181zM336.5 746.5q-7.5 7.5 -7.5 19.5q0 9 7 19l51 90q10 19 33 19q16 0 26.5 -10t10.5 -27q0 -14 -10 -25l-69 -82q-9 -11 -22 -11q-12 0 -19.5 7.5z" />
    <glyph glyph-name="racute" unicode="&#x155;" horiz-adv-x="383" 
d="M92 8q-13 13 -13 32v429q0 19 13 32.5t32 13.5t32.5 -13.5t13.5 -32.5v-43q70 94 157 94h5q19 0 31.5 -13t12.5 -32t-13 -31t-33 -12h-5q-48 0 -88 -23.5t-67 -64.5v-304q0 -19 -13.5 -32t-32.5 -13t-32 13zM188.5 574.5q-7.5 7.5 -7.5 19.5q0 9 7 19l51 90q10 19 33 19
q16 0 26.5 -10t10.5 -27q0 -14 -10 -25l-69 -82q-9 -11 -22 -11q-12 0 -19.5 7.5z" />
    <glyph glyph-name="Rcommaaccent" unicode="&#x156;" horiz-adv-x="712" 
d="M110 8q-13 13 -13 32v612q0 19 13 32.5t32 13.5h233q136 0 204 -56t68 -147q0 -60 -33.5 -109.5t-97.5 -71.5q72 -19 98.5 -89.5t26.5 -138.5v-46q0 -19 -13 -32t-32 -13q-21 0 -33.5 12.5t-12.5 32.5v30q0 50 -9 92.5t-43 76t-103 33.5h-207v-232q0 -19 -13.5 -32
t-32.5 -13t-32 13zM369 358q86 0 136.5 34t50.5 96q0 60 -43.5 92t-148.5 32h-176v-254h181zM310.5 -256.5q-6.5 6.5 -6.5 16.5q0 13 12 21q21 13 32 25.5t11 30.5q-22 0 -35.5 13.5t-13.5 34.5t14.5 36t35.5 15q22 0 36 -15t14 -38v-33q0 -39 -19 -64.5t-49 -43.5
q-8 -5 -16 -5q-9 0 -15.5 6.5z" />
    <glyph glyph-name="rcommaaccent" unicode="&#x157;" horiz-adv-x="383" 
d="M92 8q-13 13 -13 32v429q0 19 13 32.5t32 13.5t32.5 -13.5t13.5 -32.5v-43q70 94 157 94h5q19 0 31.5 -13t12.5 -32t-13 -31t-33 -12h-5q-48 0 -88 -23.5t-67 -64.5v-304q0 -19 -13.5 -32t-32.5 -13t-32 13zM78.5 -256.5q-6.5 6.5 -6.5 16.5q0 13 12 21q21 13 32 25.5
t11 30.5q-22 0 -35.5 13.5t-13.5 34.5t14.5 36t35.5 15q22 0 36 -15t14 -38v-33q0 -39 -19 -64.5t-49 -43.5q-8 -5 -16 -5q-9 0 -15.5 6.5z" />
    <glyph glyph-name="Rcaron" unicode="&#x158;" horiz-adv-x="712" 
d="M110 8q-13 13 -13 32v612q0 19 13 32.5t32 13.5h233q136 0 204 -56t68 -147q0 -60 -33.5 -109.5t-97.5 -71.5q72 -19 98.5 -89.5t26.5 -138.5v-46q0 -19 -13 -32t-32 -13q-21 0 -33.5 12.5t-12.5 32.5v30q0 50 -9 92.5t-43 76t-103 33.5h-207v-232q0 -19 -13.5 -32
t-32.5 -13t-32 13zM369 358q86 0 136.5 34t50.5 96q0 60 -43.5 92t-148.5 32h-176v-254h181zM315 744q-9 5 -18 15l-68 70q-8 8 -8 19q-1 11 8 20.5t22 9.5q11 0 18 -7l87 -74l87 74q7 7 18 7q13 0 22 -9.5t8 -20.5q0 -11 -8 -19l-68 -70q-9 -10 -18 -15t-22 -5h-38
q-13 0 -22 5z" />
    <glyph glyph-name="rcaron" unicode="&#x159;" horiz-adv-x="383" 
d="M92 8q-13 13 -13 32v429q0 19 13 32.5t32 13.5t32.5 -13.5t13.5 -32.5v-43q70 94 157 94h5q19 0 31.5 -13t12.5 -32t-13 -31t-33 -12h-5q-48 0 -88 -23.5t-67 -64.5v-304q0 -19 -13.5 -32t-32.5 -13t-32 13zM167 572q-9 5 -18 15l-68 70q-8 8 -8 19q-1 11 8 20.5t22 9.5
q11 0 18 -7l87 -74l87 74q7 7 18 7q13 0 22 -9.5t8 -20.5q0 -11 -8 -19l-68 -70q-9 -10 -18 -15t-22 -5h-38q-13 0 -22 5z" />
    <glyph glyph-name="Sacute" unicode="&#x15a;" horiz-adv-x="616" 
d="M79 38q-12 5 -20 16.5t-8 24.5q0 17 11.5 29.5t29.5 12.5q10 0 19 -4q92 -41 197 -41q175 0 175 115q0 30 -22.5 50t-55.5 31.5t-94 27.5q-81 21 -131 40.5t-86 58.5t-36 104q0 57 30 103.5t88.5 74t140.5 27.5q110 0 199 -33q28 -10 28 -40q0 -16 -11 -29t-29 -13
q-6 0 -16 4q-78 27 -161 27q-79 0 -128.5 -30t-49.5 -84q0 -36 23.5 -58.5t59 -35t96.5 -26.5q79 -19 127.5 -38t83 -59t34.5 -108q0 -56 -32 -100.5t-90 -69.5t-134 -25q-127 0 -238 48zM288.5 746.5q-7.5 7.5 -7.5 19.5q0 9 7 19l51 90q10 19 33 19q16 0 26.5 -10
t10.5 -27q0 -14 -10 -25l-69 -82q-9 -11 -22 -11q-12 0 -19.5 7.5z" />
    <glyph glyph-name="sacute" unicode="&#x15b;" horiz-adv-x="480" 
d="M62 35q-17 12 -17 33q0 16 11 28t28 12q9 0 18 -4q32 -14 64 -22t72 -8q111 0 111 71q0 23 -25.5 35t-83.5 27q-59 14 -97.5 29t-66 45.5t-27.5 80.5q0 70 50.5 114t144.5 44q77 0 145 -25q14 -4 21.5 -15t7.5 -23q0 -16 -11.5 -28t-28.5 -12q-5 0 -13 2q-58 18 -114 18
q-54 0 -84.5 -19.5t-30.5 -50.5q0 -30 28 -44t87 -27q59 -15 96 -29.5t63.5 -45.5t26.5 -83q0 -64 -50.5 -106t-142.5 -42q-100 0 -182 45zM217.5 574.5q-7.5 7.5 -7.5 19.5q0 9 7 19l51 90q10 19 33 19q16 0 26.5 -10t10.5 -27q0 -14 -10 -25l-69 -82q-9 -11 -22 -11
q-12 0 -19.5 7.5z" />
    <glyph glyph-name="Scircumflex" unicode="&#x15c;" horiz-adv-x="616" 
d="M79 38q-12 5 -20 16.5t-8 24.5q0 17 11.5 29.5t29.5 12.5q10 0 19 -4q92 -41 197 -41q175 0 175 115q0 30 -22.5 50t-55.5 31.5t-94 27.5q-81 21 -131 40.5t-86 58.5t-36 104q0 57 30 103.5t88.5 74t140.5 27.5q110 0 199 -33q28 -10 28 -40q0 -16 -11 -29t-29 -13
q-6 0 -16 4q-78 27 -161 27q-79 0 -128.5 -30t-49.5 -84q0 -36 23.5 -58.5t59 -35t96.5 -26.5q79 -19 127.5 -38t83 -59t34.5 -108q0 -56 -32 -100.5t-90 -69.5t-134 -25q-127 0 -238 48zM181 747.5q-9 9.5 -8 20.5q0 11 8 19l68 70q9 10 18 15t22 5h38q13 0 22 -5t18 -15
l68 -70q8 -8 8 -19q1 -11 -8 -20.5t-22 -9.5q-11 0 -18 7l-87 74l-87 -74q-7 -7 -18 -7q-13 0 -22 9.5z" />
    <glyph glyph-name="scircumflex" unicode="&#x15d;" horiz-adv-x="480" 
d="M62 35q-17 12 -17 33q0 16 11 28t28 12q9 0 18 -4q32 -14 64 -22t72 -8q111 0 111 71q0 23 -25.5 35t-83.5 27q-59 14 -97.5 29t-66 45.5t-27.5 80.5q0 70 50.5 114t144.5 44q77 0 145 -25q14 -4 21.5 -15t7.5 -23q0 -16 -11.5 -28t-28.5 -12q-5 0 -13 2q-58 18 -114 18
q-54 0 -84.5 -19.5t-30.5 -50.5q0 -30 28 -44t87 -27q59 -15 96 -29.5t63.5 -45.5t26.5 -83q0 -64 -50.5 -106t-142.5 -42q-100 0 -182 45zM110 575.5q-9 9.5 -8 20.5q0 11 8 19l68 70q9 10 18 15t22 5h38q13 0 22 -5t18 -15l68 -70q8 -8 8 -19q1 -11 -8 -20.5t-22 -9.5
q-11 0 -18 7l-87 74l-87 -74q-7 -7 -18 -7q-13 0 -22 9.5z" />
    <glyph glyph-name="Scedilla" unicode="&#x15e;" horiz-adv-x="616" 
d="M542.5 86q-30.5 -44 -86.5 -69.5t-130 -26.5l-31 -53q16 4 34 4q34 0 55.5 -19.5t21.5 -50.5q0 -46 -28.5 -69t-82.5 -23q-48 0 -90 26q-4 3 -7.5 7.5t-3.5 9.5q0 8 5 14t14 6q4 0 10 -3q31 -17 59 -17q57 0 57 46q0 15 -10 23t-26 8q-22 0 -44 -11q-6 -3 -10 -3
q-7 0 -12.5 4.5t-5.5 11.5q0 8 4 14l48 76q-107 5 -204 47q-12 5 -20 16.5t-8 24.5q0 17 11.5 29.5t29.5 12.5q10 0 19 -4q92 -41 197 -41q175 0 175 115q0 30 -22.5 50t-55.5 31.5t-94 27.5q-81 21 -131 40.5t-86 58.5t-36 104q0 57 30 103.5t88.5 74t140.5 27.5
q110 0 199 -33q28 -10 28 -40q0 -16 -11 -29t-29 -13q-6 0 -16 4q-78 27 -161 27q-79 0 -128.5 -30t-49.5 -84q0 -36 23.5 -58.5t59 -35t96.5 -26.5q79 -19 127.5 -38t83 -59t34.5 -108q0 -55 -30.5 -99z" />
    <glyph glyph-name="scedilla" unicode="&#x15f;" horiz-adv-x="480" 
d="M389.5 34.5q-47.5 -41.5 -134.5 -44.5l-31 -53q16 4 34 4q34 0 55.5 -19.5t21.5 -50.5q0 -46 -28.5 -69t-82.5 -23q-48 0 -90 26q-4 3 -7.5 7.5t-3.5 9.5q0 8 5 14t14 6q4 0 10 -3q31 -17 59 -17q57 0 57 46q0 15 -10 23t-26 8q-22 0 -44 -11q-6 -3 -10 -3
q-7 0 -12.5 4.5t-5.5 11.5q0 8 4 14l48 76q-81 6 -150 44q-17 12 -17 33q0 16 11 28t28 12q9 0 18 -4q32 -14 64 -22t72 -8q111 0 111 71q0 23 -25.5 35t-83.5 27q-59 14 -97.5 29t-66 45.5t-27.5 80.5q0 70 50.5 114t144.5 44q77 0 145 -25q14 -4 21.5 -15t7.5 -23
q0 -16 -11.5 -28t-28.5 -12q-5 0 -13 2q-58 18 -114 18q-54 0 -84.5 -19.5t-30.5 -50.5q0 -30 28 -44t87 -27q59 -15 96 -29.5t63.5 -45.5t26.5 -83q0 -62 -47.5 -103.5z" />
    <glyph glyph-name="Scaron" unicode="&#x160;" horiz-adv-x="616" 
d="M79 38q-12 5 -20 16.5t-8 24.5q0 17 11.5 29.5t29.5 12.5q10 0 19 -4q92 -41 197 -41q175 0 175 115q0 30 -22.5 50t-55.5 31.5t-94 27.5q-81 21 -131 40.5t-86 58.5t-36 104q0 57 30 103.5t88.5 74t140.5 27.5q110 0 199 -33q28 -10 28 -40q0 -16 -11 -29t-29 -13
q-6 0 -16 4q-78 27 -161 27q-79 0 -128.5 -30t-49.5 -84q0 -36 23.5 -58.5t59 -35t96.5 -26.5q79 -19 127.5 -38t83 -59t34.5 -108q0 -56 -32 -100.5t-90 -69.5t-134 -25q-127 0 -238 48zM267 744q-9 5 -18 15l-68 70q-8 8 -8 19q-1 11 8 20.5t22 9.5q11 0 18 -7l87 -74
l87 74q7 7 18 7q13 0 22 -9.5t8 -20.5q0 -11 -8 -19l-68 -70q-9 -10 -18 -15t-22 -5h-38q-13 0 -22 5z" />
    <glyph glyph-name="scaron" unicode="&#x161;" horiz-adv-x="480" 
d="M62 35q-17 12 -17 33q0 16 11 28t28 12q9 0 18 -4q32 -14 64 -22t72 -8q111 0 111 71q0 23 -25.5 35t-83.5 27q-59 14 -97.5 29t-66 45.5t-27.5 80.5q0 70 50.5 114t144.5 44q77 0 145 -25q14 -4 21.5 -15t7.5 -23q0 -16 -11.5 -28t-28.5 -12q-5 0 -13 2q-58 18 -114 18
q-54 0 -84.5 -19.5t-30.5 -50.5q0 -30 28 -44t87 -27q59 -15 96 -29.5t63.5 -45.5t26.5 -83q0 -64 -50.5 -106t-142.5 -42q-100 0 -182 45zM196 572q-9 5 -18 15l-68 70q-8 8 -8 19q-1 11 8 20.5t22 9.5q11 0 18 -7l87 -74l87 74q7 7 18 7q13 0 22 -9.5t8 -20.5
q0 -11 -8 -19l-68 -70q-9 -10 -18 -15t-22 -5h-38q-13 0 -22 5z" />
    <glyph glyph-name="uni0162" unicode="&#x162;" horiz-adv-x="609" 
d="M583.5 685.5q12.5 -12.5 12.5 -30.5t-12.5 -30t-30.5 -12h-203v-573q0 -11 -5.5 -21t-14.5 -16l-38 -66q16 4 34 4q34 0 55.5 -19.5t21.5 -50.5q0 -46 -28.5 -69t-82.5 -23q-48 0 -90 26q-4 3 -7.5 7.5t-3.5 9.5q0 8 5 14t14 6q4 0 10 -3q31 -17 59 -17q57 0 57 46
q0 15 -10 23t-26 8q-22 0 -44 -11q-6 -3 -10 -3q-7 0 -12.5 4.5t-5.5 11.5q0 8 4 14l53 84q-11 5 -18.5 16.5t-7.5 24.5v573h-204q-18 0 -30 12t-12 30t12 30.5t30 12.5h498q18 0 30.5 -12.5z" />
    <glyph glyph-name="uni0163" unicode="&#x163;" horiz-adv-x="382" 
d="M350 68.5q11 -10.5 11 -25.5q0 -23 -23 -35q-39 -18 -83 -18q-12 0 -19 1l-31 -54q16 4 34 4q34 0 55.5 -19.5t21.5 -50.5q0 -46 -28.5 -69t-82.5 -23q-48 0 -90 26q-4 3 -7.5 7.5t-3.5 9.5q0 8 5 14t14 6q4 0 10 -3q31 -17 59 -17q57 0 57 46q0 15 -10 23t-26 8
q-22 0 -44 -11q-6 -3 -10 -3q-7 0 -12.5 4.5t-5.5 11.5q0 8 4 14l51 82q-87 22 -87 125v310h-71q-8 0 -13.5 5.5t-5.5 13.5q0 10 9 17l136 133q9 9 17 9t13.5 -6t5.5 -14v-80h113q17 0 28 -11t11 -28q0 -16 -11 -27.5t-28 -11.5h-113v-302q0 -39 18.5 -49.5t46.5 -10.5
q20 0 40 6q4 1 8.5 2t11.5 1q14 0 25 -10.5z" />
    <glyph glyph-name="Tcaron" unicode="&#x164;" horiz-adv-x="609" 
d="M272 8q-13 13 -13 32v573h-204q-18 0 -30 12t-12 30t12 30.5t30 12.5h498q18 0 30.5 -12.5t12.5 -30.5t-12.5 -30t-30.5 -12h-203v-573q0 -19 -13.5 -32t-32.5 -13t-32 13zM264 744q-9 5 -18 15l-68 70q-8 8 -8 19q-1 11 8 20.5t22 9.5q11 0 18 -7l87 -74l87 74q7 7 18 7
q13 0 22 -9.5t8 -20.5q0 -11 -8 -19l-68 -70q-9 -10 -18 -15t-22 -5h-38q-13 0 -22 5z" />
    <glyph glyph-name="tcaron" unicode="&#x165;" horiz-adv-x="382" 
d="M109 122v310h-71q-8 0 -13.5 5.5t-5.5 13.5q0 10 9 17l136 133q9 9 17 9t13.5 -6t5.5 -14v-80h113q17 0 28 -11t11 -28q0 -16 -11 -27.5t-28 -11.5h-113v-302q0 -39 18.5 -49.5t46.5 -10.5q20 0 40 6q4 1 8.5 2t11.5 1q14 0 25 -10.5t11 -25.5q0 -23 -23 -35
q-39 -18 -83 -18q-146 0 -146 132zM246 560q-6 6 -6 16t13 19q16 12 24.5 22t8.5 26q-20 0 -33 12.5t-13 31.5q0 20 13.5 34t33.5 14q21 0 33.5 -14t12.5 -35v-31q0 -31 -14 -52t-44 -43q-6 -6 -16 -6q-7 0 -13 6z" />
    <glyph glyph-name="Tbar" unicode="&#x166;" horiz-adv-x="609" 
d="M272 8q-13 13 -13 32v273h-115q-15 0 -25 10t-10 25q0 16 10.5 26t24.5 10h115v229h-204q-18 0 -30 12t-12 30t12 30.5t30 12.5h498q18 0 30.5 -12.5t12.5 -30.5t-12.5 -30t-30.5 -12h-203v-229h114q15 0 25.5 -10.5t10.5 -25.5t-10.5 -25t-25.5 -10h-114v-273
q0 -19 -13.5 -32t-32.5 -13t-32 13z" />
    <glyph glyph-name="tbar" unicode="&#x167;" horiz-adv-x="392" 
d="M114 122v125h-47q-14 0 -23.5 9.5t-9.5 23.5t9.5 24t23.5 10h47v118h-71q-8 0 -13.5 5.5t-5.5 13.5q0 10 9 17l136 133q9 9 17 9t13.5 -6t5.5 -14v-80h113q17 0 28 -11t11 -28q0 -16 -11 -27.5t-28 -11.5h-113v-118h108q14 0 24 -10t10 -24t-10 -23.5t-24 -9.5h-108v-117
q0 -39 18.5 -49.5t46.5 -10.5q20 0 40 6q4 1 8.5 2t11.5 1q14 0 25 -10.5t11 -25.5q0 -23 -23 -35q-39 -18 -83 -18q-146 0 -146 132z" />
    <glyph glyph-name="Utilde" unicode="&#x168;" horiz-adv-x="758" 
d="M242 20q-66 30 -108 91.5t-42 150.5v395q0 19 13 32.5t32 13.5t32.5 -13.5t13.5 -32.5v-398q0 -60 27.5 -102t72.5 -63t96 -21t96 21t72.5 63t27.5 102v398q0 19 13 32.5t32 13.5t32.5 -13.5t13.5 -32.5v-395q0 -89 -42 -150.5t-108 -91.5t-137 -30t-137 30zM225 749.5
q-7 6.5 -7 16.5q0 21 10.5 43t29.5 37t44 15q20 0 37.5 -6t42.5 -18q23 -11 39.5 -17t34.5 -6q15 0 23.5 7t13.5 20q8 21 25 21q10 0 16 -6.5t7 -15.5q0 -35 -24 -65t-60 -30q-20 0 -38 6.5t-44 18.5q-23 11 -39 17t-33 6q-26 0 -39 -32q-6 -18 -23 -18q-9 0 -16 6.5z" />
    <glyph glyph-name="utilde" unicode="&#x169;" horiz-adv-x="609" 
d="M157.5 16q-40.5 26 -62 71t-21.5 99v284q0 19 13.5 32t32.5 13t32 -13t13 -32v-274q0 -122 110 -122q50 0 89.5 26t74.5 70v300q0 19 13.5 32t32.5 13t32 -13t13 -32v-429q0 -19 -13 -32.5t-32 -13.5t-32.5 13.5t-13.5 32.5v41q-38 -42 -82 -67t-104 -25q-55 0 -95.5 26z
M151 577.5q-7 6.5 -7 16.5q0 21 10.5 43t29.5 37t44 15q20 0 37.5 -6t42.5 -18q23 -11 39.5 -17t34.5 -6q15 0 23.5 7t13.5 20q8 21 25 21q10 0 16 -6.5t7 -15.5q0 -35 -24 -65t-60 -30q-20 0 -38 6.5t-44 18.5q-23 11 -39 17t-33 6q-26 0 -39 -32q-6 -18 -23 -18
q-9 0 -16 6.5z" />
    <glyph glyph-name="Umacron" unicode="&#x16a;" horiz-adv-x="758" 
d="M242 20q-66 30 -108 91.5t-42 150.5v395q0 19 13 32.5t32 13.5t32.5 -13.5t13.5 -32.5v-398q0 -60 27.5 -102t72.5 -63t96 -21t96 21t72.5 63t27.5 102v398q0 19 13 32.5t32 13.5t32.5 -13.5t13.5 -32.5v-395q0 -89 -42 -150.5t-108 -91.5t-137 -30t-137 30zM240.5 768.5
q-8.5 8.5 -8.5 21.5t8.5 21.5t21.5 8.5h234q13 0 21.5 -8.5t8.5 -21.5t-8.5 -21.5t-21.5 -8.5h-234q-13 0 -21.5 8.5z" />
    <glyph glyph-name="umacron" unicode="&#x16b;" horiz-adv-x="609" 
d="M157.5 16q-40.5 26 -62 71t-21.5 99v284q0 19 13.5 32t32.5 13t32 -13t13 -32v-274q0 -122 110 -122q50 0 89.5 26t74.5 70v300q0 19 13.5 32t32.5 13t32 -13t13 -32v-429q0 -19 -13 -32.5t-32 -13.5t-32.5 13.5t-13.5 32.5v41q-38 -42 -82 -67t-104 -25q-55 0 -95.5 26z
M166.5 596.5q-8.5 8.5 -8.5 21.5t8.5 21.5t21.5 8.5h234q13 0 21.5 -8.5t8.5 -21.5t-8.5 -21.5t-21.5 -8.5h-234q-13 0 -21.5 8.5z" />
    <glyph glyph-name="Ubreve" unicode="&#x16c;" horiz-adv-x="758" 
d="M242 20q-66 30 -108 91.5t-42 150.5v395q0 19 13 32.5t32 13.5t32.5 -13.5t13.5 -32.5v-398q0 -60 27.5 -102t72.5 -63t96 -21t96 21t72.5 63t27.5 102v398q0 19 13 32.5t32 13.5t32.5 -13.5t13.5 -32.5v-395q0 -89 -42 -150.5t-108 -91.5t-137 -30t-137 30zM295 770
q-37 22 -56 59q-3 6 -3 14q0 13 8.5 22t22.5 9q19 0 28 -19q11 -23 33 -36t51 -13t51 13t33 36q9 19 28 19q14 0 22.5 -9t8.5 -22q0 -8 -3 -14q-19 -37 -56 -59t-84 -22t-84 22z" />
    <glyph glyph-name="ubreve" unicode="&#x16d;" horiz-adv-x="609" 
d="M157.5 16q-40.5 26 -62 71t-21.5 99v284q0 19 13.5 32t32.5 13t32 -13t13 -32v-274q0 -122 110 -122q50 0 89.5 26t74.5 70v300q0 19 13.5 32t32.5 13t32 -13t13 -32v-429q0 -19 -13 -32.5t-32 -13.5t-32.5 13.5t-13.5 32.5v41q-38 -42 -82 -67t-104 -25q-55 0 -95.5 26z
M219.5 597.5q-37.5 21.5 -54.5 59.5q-3 6 -3 14q0 13 8.5 22t22.5 9q19 0 28 -19q11 -23 33 -36t51 -13t51 13t33 36q9 19 28 19q14 0 22.5 -9t8.5 -22q0 -8 -3 -14q-17 -38 -54.5 -59.5t-85.5 -21.5t-85.5 21.5z" />
    <glyph glyph-name="Uring" unicode="&#x16e;" horiz-adv-x="758" 
d="M242 20q-66 30 -108 91.5t-42 150.5v395q0 19 13 32.5t32 13.5t32.5 -13.5t13.5 -32.5v-398q0 -60 27.5 -102t72.5 -63t96 -21t96 21t72.5 63t27.5 102v398q0 19 13 32.5t32 13.5t32.5 -13.5t13.5 -32.5v-395q0 -89 -42 -150.5t-108 -91.5t-137 -30t-137 30zM312.5 750.5
q-27.5 27.5 -27.5 66.5t27.5 66.5t66.5 27.5t66.5 -27.5t27.5 -66.5t-27.5 -66.5t-66.5 -27.5t-66.5 27.5zM413.5 782.5q14.5 14.5 14.5 34.5t-14.5 34.5t-34.5 14.5t-34.5 -14.5t-14.5 -34.5t14.5 -34.5t34.5 -14.5t34.5 14.5z" />
    <glyph glyph-name="uring" unicode="&#x16f;" horiz-adv-x="609" 
d="M157.5 16q-40.5 26 -62 71t-21.5 99v284q0 19 13.5 32t32.5 13t32 -13t13 -32v-274q0 -122 110 -122q50 0 89.5 26t74.5 70v300q0 19 13.5 32t32.5 13t32 -13t13 -32v-429q0 -19 -13 -32.5t-32 -13.5t-32.5 13.5t-13.5 32.5v41q-38 -42 -82 -67t-104 -25q-55 0 -95.5 26z
M238.5 578.5q-27.5 27.5 -27.5 66.5t27.5 66.5t66.5 27.5t66.5 -27.5t27.5 -66.5t-27.5 -66.5t-66.5 -27.5t-66.5 27.5zM339.5 610.5q14.5 14.5 14.5 34.5t-14.5 34.5t-34.5 14.5t-34.5 -14.5t-14.5 -34.5t14.5 -34.5t34.5 -14.5t34.5 14.5z" />
    <glyph glyph-name="Uhungarumlaut" unicode="&#x170;" horiz-adv-x="758" 
d="M242 20q-66 30 -108 91.5t-42 150.5v395q0 19 13 32.5t32 13.5t32.5 -13.5t13.5 -32.5v-398q0 -60 27.5 -102t72.5 -63t96 -21t96 21t72.5 63t27.5 102v398q0 19 13 32.5t32 13.5t32.5 -13.5t13.5 -32.5v-395q0 -89 -42 -150.5t-108 -91.5t-137 -30t-137 30zM301 746
q-8 7 -8 18q0 5 1 8l27 90q4 15 15 23t23 8q14 0 24.5 -9t10.5 -24q0 -12 -7 -25l-41 -79q-9 -17 -26 -17q-11 0 -19 7zM417 746q-8 7 -8 18q0 5 1 8l27 90q4 15 15 23t23 8q14 0 24.5 -9t10.5 -24q0 -12 -7 -25l-41 -79q-9 -17 -26 -17q-11 0 -19 7z" />
    <glyph glyph-name="uhungarumlaut" unicode="&#x171;" horiz-adv-x="609" 
d="M157.5 16q-40.5 26 -62 71t-21.5 99v284q0 19 13.5 32t32.5 13t32 -13t13 -32v-274q0 -122 110 -122q50 0 89.5 26t74.5 70v300q0 19 13.5 32t32.5 13t32 -13t13 -32v-429q0 -19 -13 -32.5t-32 -13.5t-32.5 13.5t-13.5 32.5v41q-38 -42 -82 -67t-104 -25q-55 0 -95.5 26z
M227 574q-8 7 -8 18q0 5 1 8l27 90q4 15 15 23t23 8q14 0 24.5 -9t10.5 -24q0 -12 -7 -25l-41 -79q-9 -17 -26 -17q-11 0 -19 7zM343 574q-8 7 -8 18q0 5 1 8l27 90q4 15 15 23t23 8q14 0 24.5 -9t10.5 -24q0 -12 -7 -25l-41 -79q-9 -17 -26 -17q-11 0 -19 7z" />
    <glyph glyph-name="Uogonek" unicode="&#x172;" horiz-adv-x="758" 
d="M332.5 -180q-27.5 23 -27.5 61q0 64 69 109q-70 1 -135 31.5t-106 91.5t-41 149v395q0 19 13 32.5t32 13.5t32.5 -13.5t13.5 -32.5v-398q0 -60 27.5 -102t72.5 -63t96 -21t96 21t72.5 63t27.5 102v398q0 19 13 32.5t32 13.5t32.5 -13.5t13.5 -32.5v-395q0 -95 -48 -159
t-124 -92q-44 -16 -80 -47t-36 -63q0 -48 51 -48q15 0 35 6q6 2 9 2q10 0 16 -6t6 -16t-11 -18q-34 -24 -86 -24q-38 0 -65.5 23z" />
    <glyph glyph-name="uogonek" unicode="&#x173;" horiz-adv-x="609" 
d="M359.5 -180q-27.5 23 -27.5 61q0 78 107 134v67q-38 -42 -82 -67t-104 -25q-55 0 -95.5 26t-62 71t-21.5 99v284q0 19 13.5 32t32.5 13t32 -13t13 -32v-274q0 -122 110 -122q50 0 89.5 26t74.5 70v300q0 19 13.5 32t32.5 13t32 -13t13 -32v-430q0 -15 -9 -26.5t-25 -17.5
q-43 -17 -67 -43.5t-24 -52.5q0 -47 51 -47q15 0 35 6q6 2 9 2q10 0 16 -6t6 -16t-11 -18q-34 -24 -86 -24q-38 0 -65.5 23z" />
    <glyph glyph-name="Wcircumflex" unicode="&#x174;" horiz-adv-x="1011" 
d="M250.5 6.5q-15.5 11.5 -23.5 33.5l-196 602q-3 11 -3 17q-1 19 11.5 31.5t32.5 12.5q16 0 28 -10t17 -26l168 -552l169 550q5 17 19.5 27.5t32.5 10.5t32.5 -10.5t19.5 -27.5l169 -550l168 552q5 16 17 26t28 10q20 0 32.5 -12.5t11.5 -31.5q0 -6 -3 -17l-196 -602
q-8 -22 -23.5 -33.5t-35.5 -11.5t-36.5 12.5t-22.5 32.5l-161 510l-161 -510q-6 -20 -22.5 -32.5t-36.5 -12.5t-35.5 11.5zM379 747.5q-9 9.5 -8 20.5q0 11 8 19l68 70q9 10 18 15t22 5h38q13 0 22 -5t18 -15l68 -70q8 -8 8 -19q1 -11 -8 -20.5t-22 -9.5q-11 0 -18 7l-87 74
l-87 -74q-7 -7 -18 -7q-13 0 -22 9.5z" />
    <glyph glyph-name="wcircumflex" unicode="&#x175;" horiz-adv-x="792" 
d="M195 7q-16 12 -22 30l-142 416q-3 9 -3 17q0 19 13 32t32 13q14 0 25.5 -7.5t15.5 -19.5l117 -385l116 376q5 16 18.5 26t30.5 10t30.5 -10t18.5 -26l116 -376l117 385q4 12 15.5 19.5t25.5 7.5q19 0 32 -13t13 -32q0 -8 -3 -17l-142 -416q-6 -18 -22 -30t-36 -12t-36 12
t-23 31l-106 331l-106 -331q-7 -19 -23 -31t-36 -12t-36 12zM269 575.5q-9 9.5 -8 20.5q0 11 8 19l68 70q9 10 18 15t22 5h38q13 0 22 -5t18 -15l68 -70q8 -8 8 -19q1 -11 -8 -20.5t-22 -9.5q-11 0 -18 7l-87 74l-87 -74q-7 -7 -18 -7q-13 0 -22 9.5z" />
    <glyph glyph-name="Ycircumflex" unicode="&#x176;" horiz-adv-x="639" 
d="M287.5 8q-13.5 13 -13.5 32v255l-239 335q-8 13 -8 27q0 19 12.5 32.5t31.5 13.5q25 0 40 -23l209 -304l209 304q15 23 40 23q19 0 32 -13.5t12 -32.5q0 -14 -8 -27l-240 -335v-255q0 -19 -13 -32t-32 -13t-32.5 13zM193 747.5q-9 9.5 -8 20.5q0 11 8 19l68 70
q9 10 18 15t22 5h38q13 0 22 -5t18 -15l68 -70q8 -8 8 -19q1 -11 -8 -20.5t-22 -9.5q-11 0 -18 7l-87 74l-87 -74q-7 -7 -18 -7q-13 0 -22 9.5z" />
    <glyph glyph-name="ycircumflex" unicode="&#x177;" horiz-adv-x="537" 
d="M162.5 -222q-12.5 13 -12.5 31q0 8 3 16l65 167l-188 458q-4 10 -4 19q0 19 13 32.5t32 13.5q14 0 25.5 -8t16.5 -20l154 -382l157 380q13 30 42 30q19 0 32 -13.5t13 -32.5q0 -9 -3 -17l-273 -656q-14 -31 -42 -31q-18 0 -30.5 13zM142 575.5q-9 9.5 -8 20.5q0 11 8 19
l68 70q9 10 18 15t22 5h38q13 0 22 -5t18 -15l68 -70q8 -8 8 -19q1 -11 -8 -20.5t-22 -9.5q-11 0 -18 7l-87 74l-87 -74q-7 -7 -18 -7q-13 0 -22 9.5z" />
    <glyph glyph-name="Ydieresis" unicode="&#x178;" horiz-adv-x="639" 
d="M287.5 8q-13.5 13 -13.5 32v255l-239 335q-8 13 -8 27q0 19 12.5 32.5t31.5 13.5q25 0 40 -23l209 -304l209 304q15 23 40 23q19 0 32 -13.5t12 -32.5q0 -14 -8 -27l-240 -335v-255q0 -19 -13 -32t-32 -13t-32.5 13zM200 762q-15 15 -15 36t15 36t36 15t36 -15t15 -36
t-15 -36t-36 -15t-36 15zM368 762q-15 15 -15 36t15 36t36 15t36 -15t15 -36t-15 -36t-36 -15t-36 15z" />
    <glyph glyph-name="Zacute" unicode="&#x179;" horiz-adv-x="638" 
d="M64 17q-17 17 -17 41q0 22 12 37l418 516h-385q-18 0 -30.5 12.5t-12.5 30.5t12.5 31t30.5 13h434q28 0 44.5 -18t16.5 -44q0 -10 -4.5 -21t-11.5 -19l-413 -511h392q18 0 30.5 -12.5t12.5 -30.5t-12.5 -30t-30.5 -12h-445q-24 0 -41 17zM299.5 746.5q-7.5 7.5 -7.5 19.5
q0 9 7 19l51 90q10 19 33 19q16 0 26.5 -10t10.5 -27q0 -14 -10 -25l-69 -82q-9 -11 -22 -11q-12 0 -19.5 7.5z" />
    <glyph glyph-name="zacute" unicode="&#x17a;" horiz-adv-x="498" 
d="M58 14q-18 14 -18 39q0 23 16 41l288 331h-253q-18 0 -30 12t-12 30t12 30.5t30 12.5h303q26 0 42 -16t16 -41q0 -23 -14 -40l-280 -328h257q18 0 30.5 -12.5t12.5 -30.5t-12.5 -30t-30.5 -12h-312q-27 0 -45 14zM231.5 574.5q-7.5 7.5 -7.5 19.5q0 9 7 19l51 90
q10 19 33 19q16 0 26.5 -10t10.5 -27q0 -14 -10 -25l-69 -82q-9 -11 -22 -11q-12 0 -19.5 7.5z" />
    <glyph glyph-name="Zdotaccent" unicode="&#x17b;" horiz-adv-x="638" 
d="M64 17q-17 17 -17 41q0 22 12 37l418 516h-385q-18 0 -30.5 12.5t-12.5 30.5t12.5 31t30.5 13h434q28 0 44.5 -18t16.5 -44q0 -10 -4.5 -21t-11.5 -19l-413 -511h392q18 0 30.5 -12.5t12.5 -30.5t-12.5 -30t-30.5 -12h-445q-24 0 -41 17zM283 762q-15 15 -15 36t15 36
t36 15t36 -15t15 -36t-15 -36t-36 -15t-36 15z" />
    <glyph glyph-name="zdotaccent" unicode="&#x17c;" horiz-adv-x="498" 
d="M58 14q-18 14 -18 39q0 23 16 41l288 331h-253q-18 0 -30 12t-12 30t12 30.5t30 12.5h303q26 0 42 -16t16 -41q0 -23 -14 -40l-280 -328h257q18 0 30.5 -12.5t12.5 -30.5t-12.5 -30t-30.5 -12h-312q-27 0 -45 14zM215 590q-15 15 -15 36t15 36t36 15t36 -15t15 -36
t-15 -36t-36 -15t-36 15z" />
    <glyph glyph-name="Zcaron" unicode="&#x17d;" horiz-adv-x="638" 
d="M64 17q-17 17 -17 41q0 22 12 37l418 516h-385q-18 0 -30.5 12.5t-12.5 30.5t12.5 31t30.5 13h434q28 0 44.5 -18t16.5 -44q0 -10 -4.5 -21t-11.5 -19l-413 -511h392q18 0 30.5 -12.5t12.5 -30.5t-12.5 -30t-30.5 -12h-445q-24 0 -41 17zM278 744q-9 5 -18 15l-68 70
q-8 8 -8 19q-1 11 8 20.5t22 9.5q11 0 18 -7l87 -74l87 74q7 7 18 7q13 0 22 -9.5t8 -20.5q0 -11 -8 -19l-68 -70q-9 -10 -18 -15t-22 -5h-38q-13 0 -22 5z" />
    <glyph glyph-name="zcaron" unicode="&#x17e;" horiz-adv-x="498" 
d="M58 14q-18 14 -18 39q0 23 16 41l288 331h-253q-18 0 -30 12t-12 30t12 30.5t30 12.5h303q26 0 42 -16t16 -41q0 -23 -14 -40l-280 -328h257q18 0 30.5 -12.5t12.5 -30.5t-12.5 -30t-30.5 -12h-312q-27 0 -45 14zM210 572q-9 5 -18 15l-68 70q-8 8 -8 19q-1 11 8 20.5
t22 9.5q11 0 18 -7l87 -74l87 74q7 7 18 7q13 0 22 -9.5t8 -20.5q0 -11 -8 -19l-68 -70q-9 -10 -18 -15t-22 -5h-38q-13 0 -22 5z" />
    <glyph glyph-name="longs" unicode="&#x17f;" horiz-adv-x="287" 
d="M130 8q-13 13 -13 32v392h-59q-16 0 -27.5 11.5t-11.5 27.5q0 17 11.5 28t27.5 11h59v58q0 60 21.5 98.5t56 56t72.5 17.5q47 0 87 -20q10 -5 16.5 -14.5t6.5 -20.5q0 -15 -11 -26.5t-26 -11.5q-11 0 -23 3q-24 3 -27 3q-41 0 -61.5 -19t-20.5 -69v-525q0 -19 -13.5 -32
t-32.5 -13t-32 13z" />
    <glyph glyph-name="uni018F" unicode="&#x18f;" horiz-adv-x="792" 
d="M565.5 664.5q80.5 -43.5 126 -125t45.5 -190.5q-2 -104 -45 -185.5t-119.5 -127.5t-176.5 -46q-101 0 -178.5 44t-120 123t-42.5 182q0 23 14 37.5t33 14.5h542q-12 104 -81.5 167t-186.5 63q-62 0 -110 -12t-91 -35q-8 -4 -18 -4q-17 0 -28.5 11.5t-11.5 26.5
q0 26 22 38q109 62 245 62q101 0 181.5 -43.5zM518.5 105q53.5 30 85.5 83.5t40 120.5h-486q4 -69 34 -122t82.5 -82.5t121.5 -29.5t122.5 30z" />
    <glyph glyph-name="florin" unicode="&#x192;" horiz-adv-x="403" 
d="M-41 -144q-12 12 -12 29t12 29.5t29 12.5h7q41 0 64 19t30 69l48 345h-72q-15 0 -25.5 10.5t-10.5 25.5t10.5 26t25.5 11h83l20 145q12 87 62.5 127.5t112.5 40.5q51 0 78 -13q10 -5 16.5 -14.5t6.5 -21.5q0 -17 -11.5 -28.5t-28.5 -11.5q-5 0 -21 3t-30 3q-41 0 -64 -19
t-30 -69l-20 -142h110q15 0 26 -11t11 -26q0 -16 -10.5 -26t-26.5 -10h-120l-49 -348q-12 -87 -62 -127.5t-112 -40.5h-18q-17 0 -29 12z" />
    <glyph glyph-name="Ohorn" unicode="&#x1a0;" horiz-adv-x="811" 
d="M222 36q-79 46 -122 127t-45 186q2 105 45.5 186.5t123.5 127t190 45.5q22 0 44 -2t30 -3q47 -7 99 -7q50 0 72 19t22 54q0 14 -4 30q-3 12 -3 21q0 14 9.5 23.5t23.5 9.5q23 0 36.5 -26.5t13.5 -73.5t-29 -80t-94 -42q58 -48 90 -120.5t33 -161.5q-2 -104 -45.5 -185.5
t-122 -127.5t-183.5 -46t-184 46zM545 111q59 36 90 98t31 140t-31 140t-90 98t-139 36q-81 0 -139.5 -36t-89.5 -98t-31 -140t31 -140t89.5 -98t139.5 -36q80 0 139 36z" />
    <glyph glyph-name="ohorn" unicode="&#x1a1;" horiz-adv-x="608" 
d="M169 23q-58 33 -89.5 93.5t-31.5 138.5t31.5 138.5t89.5 93.5t135 33q27 0 63 -6q32 -4 45 -4q35 0 53.5 18.5t18.5 52.5q0 14 -4 30q-3 12 -3 21q0 14 9.5 23.5t23.5 9.5q23 0 36.5 -26.5t13.5 -73.5q0 -38 -18.5 -69t-55.5 -46q36 -36 55 -85.5t19 -109.5
q0 -78 -32 -138.5t-90 -93.5t-134 -33q-77 0 -135 33zM382.5 92q37.5 19 62 60t24.5 104q0 62 -24.5 103t-62 59.5t-78.5 18.5q-42 0 -79.5 -18.5t-61.5 -59.5t-24 -103q0 -63 24 -104t61.5 -60t79.5 -19q41 0 78.5 19z" />
    <glyph glyph-name="Uhorn" unicode="&#x1af;" horiz-adv-x="763" 
d="M242 20q-66 30 -108 91.5t-42 150.5v395q0 19 13 32.5t32 13.5t32.5 -13.5t13.5 -32.5v-398q0 -60 27.5 -102t72.5 -63t96 -21t96 21t72.5 63t27.5 102v398q0 19 13 32.5t32 13.5q9 0 25 -2q13 -3 31 -3q32 0 49.5 18.5t17.5 52.5q0 14 -4 30q-3 12 -3 21q0 14 9.5 23.5
t23.5 9.5q23 0 36.5 -26.5t13.5 -73.5q0 -54 -36 -90.5t-105 -36.5h-12v-364q0 -89 -42 -150.5t-108 -91.5t-137 -30t-137 30z" />
    <glyph glyph-name="uhorn" unicode="&#x1b0;" horiz-adv-x="619" 
d="M656.5 638.5q13.5 -26.5 13.5 -73.5q0 -53 -34.5 -90t-99.5 -37h-6v-397q0 -19 -13 -32.5t-32 -13.5t-32.5 13.5t-13.5 32.5v41q-38 -42 -82 -67t-104 -25q-55 0 -95.5 26t-62 71t-21.5 99v284q0 19 13.5 32t32.5 13t32 -13t13 -32v-274q0 -122 110 -122q50 0 89.5 26
t74.5 70v300q0 19 13.5 32t32.5 13q14 0 26 -3q14 -2 23 -2q27 0 43.5 18t16.5 52q0 14 -4 32q-3 11 -3 20q0 14 9.5 23.5t23.5 9.5q23 0 36.5 -26.5z" />
    <glyph glyph-name="uni01C4" unicode="&#x1c4;" horiz-adv-x="1358" 
d="M110 13q-13 13 -13 32v607q0 19 13 32.5t32 13.5h201q114 0 193.5 -50.5t119.5 -130.5t40 -168t-40 -168t-119.5 -130.5t-193.5 -50.5h-201q-19 0 -32 13zM332 85q82 0 144 33.5t96 93t34 137.5t-34 137.5t-96 93t-144 33.5h-144v-528h144zM784 17q-17 17 -17 41
q0 22 12 37l418 516h-385q-18 0 -30.5 12.5t-12.5 30.5t12.5 31t30.5 13h434q28 0 44.5 -18t16.5 -44q0 -10 -4.5 -21t-11.5 -19l-413 -511h392q18 0 30.5 -12.5t12.5 -30.5t-12.5 -30t-30.5 -12h-445q-24 0 -41 17zM998 744q-9 5 -18 15l-68 70q-8 8 -8 19q-1 11 8 20.5
t22 9.5q11 0 18 -7l87 -74l87 74q7 7 18 7q13 0 22 -9.5t8 -20.5q0 -11 -8 -19l-68 -70q-9 -10 -18 -15t-22 -5h-38q-13 0 -22 5z" />
    <glyph glyph-name="uni01C5" unicode="&#x1c5;" horiz-adv-x="1228" 
d="M110 13q-13 13 -13 32v607q0 19 13 32.5t32 13.5h201q114 0 193.5 -50.5t119.5 -130.5t40 -168t-40 -168t-119.5 -130.5t-193.5 -50.5h-201q-19 0 -32 13zM332 85q82 0 144 33.5t96 93t34 137.5t-34 137.5t-96 93t-144 33.5h-144v-528h144zM788 14q-18 14 -18 39
q0 23 16 41l288 331h-253q-18 0 -30 12t-12 30t12 30.5t30 12.5h303q26 0 42 -16t16 -41q0 -23 -14 -40l-280 -328h257q18 0 30.5 -12.5t12.5 -30.5t-12.5 -30t-30.5 -12h-312q-27 0 -45 14zM940 572q-9 5 -18 15l-68 70q-8 8 -8 19q-1 11 8 20.5t22 9.5q11 0 18 -7l87 -74
l87 74q7 7 18 7q13 0 22 -9.5t8 -20.5q0 -11 -8 -19l-68 -70q-9 -10 -18 -15t-22 -5h-38q-13 0 -22 5z" />
    <glyph glyph-name="uni01C6" unicode="&#x1c6;" horiz-adv-x="1109" 
d="M172.5 21.5q-55.5 31.5 -90 92t-34.5 141.5t34.5 141.5t90 92t117.5 31.5q98 0 171 -76v245q0 20 13.5 33t32.5 13t32 -13.5t13 -32.5v-649q0 -19 -13 -32t-32 -13t-32.5 13t-13.5 32v26q-73 -76 -171 -76q-62 0 -117.5 31.5zM389.5 95.5q40.5 20.5 71.5 54.5v210
q-31 34 -71.5 54.5t-86.5 20.5q-74 0 -119 -47t-45 -133t45 -133t119 -47q46 0 86.5 20.5zM669 14q-18 14 -18 39q0 23 16 41l288 331h-253q-18 0 -30 12t-12 30t12 30.5t30 12.5h303q26 0 42 -16t16 -41q0 -23 -14 -40l-280 -328h257q18 0 30.5 -12.5t12.5 -30.5t-12.5 -30
t-30.5 -12h-312q-27 0 -45 14zM821 572q-9 5 -18 15l-68 70q-8 8 -8 19q-1 11 8 20.5t22 9.5q11 0 18 -7l87 -74l87 74q7 7 18 7q13 0 22 -9.5t8 -20.5q0 -11 -8 -19l-68 -70q-9 -10 -18 -15t-22 -5h-38q-13 0 -22 5z" />
    <glyph glyph-name="uni01C7" unicode="&#x1c7;" horiz-adv-x="1042" 
d="M115.5 18.5q-18.5 18.5 -18.5 44.5v594q0 19 13 32.5t32 13.5t32.5 -13.5t13.5 -32.5v-566h327q19 0 32.5 -13.5t13.5 -32.5t-13.5 -32t-32.5 -13h-355q-26 0 -44.5 18.5zM611 24q-22 13 -22 37q0 16 10.5 28.5t27.5 12.5q10 0 18 -4q46 -22 93 -22q54 0 87.5 31
t33.5 117v433q0 19 13 32.5t32 13.5t32.5 -13.5t13.5 -32.5v-427q0 -131 -58.5 -185.5t-147.5 -54.5q-73 0 -133 34z" />
    <glyph glyph-name="uni01C8" unicode="&#x1c8;" horiz-adv-x="830" 
d="M115.5 18.5q-18.5 18.5 -18.5 44.5v594q0 19 13 32.5t32 13.5t32.5 -13.5t13.5 -32.5v-566h327q19 0 32.5 -13.5t13.5 -32.5t-13.5 -32t-32.5 -13h-355q-26 0 -44.5 18.5zM667 629q-15 15 -15 36v4q0 21 15 36t36 15h6q21 0 36 -15t15 -36v-4q0 -21 -15 -36t-36 -15h-6
q-21 0 -36 15zM557 -231q-12 4 -19 13.5t-7 22.5q0 15 11 26.5t27 11.5q6 0 15 -1.5t15 -1.5q31 0 46 11t15 48v569q0 19 13 32.5t32 13.5q20 0 33 -13t13 -33v-571q0 -62 -31.5 -99.5t-99.5 -37.5q-36 0 -63 9z" />
    <glyph glyph-name="uni01C9" unicode="&#x1c9;" horiz-adv-x="503" 
d="M92 8q-13 13 -13 32v649q0 19 13 32.5t32 13.5q20 0 33 -13t13 -33v-649q0 -19 -13.5 -32t-32.5 -13t-32 13zM340 629q-15 15 -15 36v4q0 21 15 36t36 15h6q21 0 36 -15t15 -36v-4q0 -21 -15 -36t-36 -15h-6q-21 0 -36 15zM230 -231q-12 4 -19 13.5t-7 22.5q0 15 11 26.5
t27 11.5q6 0 15 -1.5t15 -1.5q31 0 46 11t15 48v569q0 19 13 32.5t32 13.5q20 0 33 -13t13 -33v-571q0 -62 -31.5 -99.5t-99.5 -37.5q-36 0 -63 9z" />
    <glyph glyph-name="uni01CA" unicode="&#x1ca;" horiz-adv-x="1269" 
d="M110 8q-13 13 -13 32v597q0 27 19 46.5t46 19.5h13q32 0 55 -30l385 -556v540q0 19 13 32.5t32 13.5t32.5 -13.5t13.5 -32.5v-597q0 -27 -19.5 -46t-46.5 -19h-12q-16 0 -30 7.5t-23 19.5l-387 559v-541q0 -19 -13.5 -32t-32.5 -13t-32 13zM838 24q-22 13 -22 37
q0 16 10.5 28.5t27.5 12.5q10 0 18 -4q46 -22 93 -22q54 0 87.5 31t33.5 117v433q0 19 13 32.5t32 13.5t32.5 -13.5t13.5 -32.5v-427q0 -131 -58.5 -185.5t-147.5 -54.5q-73 0 -133 34z" />
    <glyph glyph-name="uni01CB" unicode="&#x1cb;" horiz-adv-x="1047" 
d="M110 8q-13 13 -13 32v597q0 27 19 46.5t46 19.5h13q32 0 55 -30l385 -556v540q0 19 13 32.5t32 13.5t32.5 -13.5t13.5 -32.5v-597q0 -27 -19.5 -46t-46.5 -19h-12q-16 0 -30 7.5t-23 19.5l-387 559v-541q0 -19 -13.5 -32t-32.5 -13t-32 13zM884 629q-15 15 -15 36v4
q0 21 15 36t36 15h6q21 0 36 -15t15 -36v-4q0 -21 -15 -36t-36 -15h-6q-21 0 -36 15zM774 -231q-12 4 -19 13.5t-7 22.5q0 15 11 26.5t27 11.5q6 0 15 -1.5t15 -1.5q31 0 46 11t15 48v569q0 19 13 32.5t32 13.5q20 0 33 -13t13 -33v-571q0 -62 -31.5 -99.5t-99.5 -37.5
q-36 0 -63 9z" />
    <glyph glyph-name="uni01CC" unicode="&#x1cc;" horiz-adv-x="863" 
d="M92 8q-13 13 -13 32v429q0 19 13 32.5t32 13.5t32.5 -13.5t13.5 -32.5v-41q38 42 82 67t104 25q55 0 95.5 -26t62 -71t21.5 -99v-284q0 -19 -13.5 -32t-32.5 -13t-32 13t-13 32v274q0 122 -110 122q-50 0 -89.5 -26t-74.5 -70v-300q0 -19 -13.5 -32t-32.5 -13t-32 13z
M700 629q-15 15 -15 36v4q0 21 15 36t36 15h6q21 0 36 -15t15 -36v-4q0 -21 -15 -36t-36 -15h-6q-21 0 -36 15zM590 -231q-12 4 -19 13.5t-7 22.5q0 15 11 26.5t27 11.5q6 0 15 -1.5t15 -1.5q31 0 46 11t15 48v569q0 19 13 32.5t32 13.5q20 0 33 -13t13 -33v-571
q0 -62 -31.5 -99.5t-99.5 -37.5q-36 0 -63 9z" />
    <glyph glyph-name="Gcaron" unicode="&#x1e6;" horiz-adv-x="757" 
d="M223 35.5q-80 45.5 -124 127t-44 185.5q0 106 46 188t125.5 127t176.5 45q78 0 136.5 -19t112.5 -53q8 -4 14 -14t6 -22q0 -17 -11.5 -29t-30.5 -12q-11 0 -21 5q-47 28 -94 42t-102 14q-76 0 -137 -32t-95.5 -93.5t-34.5 -146.5q0 -78 32.5 -139.5t94 -97t145.5 -35.5
q94 0 175 44v181h-165q-17 0 -29 12t-12 29t12 29t29 12h197q20 0 34 -14t14 -34v-227q0 -21 -10.5 -37.5t-27.5 -24.5q-112 -56 -229 -56q-103 0 -183 45.5zM365 744q-9 5 -18 15l-68 70q-8 8 -8 19q-1 11 8 20.5t22 9.5q11 0 18 -7l87 -74l87 74q7 7 18 7q13 0 22 -9.5
t8 -20.5q0 -11 -8 -19l-68 -70q-9 -10 -18 -15t-22 -5h-38q-13 0 -22 5z" />
    <glyph glyph-name="gcaron" unicode="&#x1e7;" horiz-adv-x="631" 
d="M200 -225q-59 15 -97 37q-18 11 -18 35q0 16 11.5 28.5t28.5 12.5q8 0 18 -4q76 -38 165 -38q153 0 153 163v67q-71 -76 -171 -76q-59 0 -114.5 29.5t-91.5 88t-36 142.5t36 142.5t91.5 88t114.5 29.5q100 0 171 -76v25q0 19 13 32.5t32 13.5t32.5 -13.5t13.5 -32.5v-447
q0 -126 -61 -194t-174 -68q-58 0 -117 15zM392 103q36 20 69 54v206q-33 34 -69 54t-83 20q-75 0 -122.5 -45.5t-47.5 -131.5t47.5 -131.5t122.5 -45.5q47 0 83 20zM275 572q-9 5 -18 15l-68 70q-8 8 -8 19q-1 11 8 20.5t22 9.5q11 0 18 -7l87 -74l87 74q7 7 18 7
q13 0 22 -9.5t8 -20.5q0 -11 -8 -19l-68 -70q-9 -10 -18 -15t-22 -5h-38q-13 0 -22 5z" />
    <glyph glyph-name="uni01EA" unicode="&#x1ea;" horiz-adv-x="811" 
d="M373.5 -180q-27.5 23 -27.5 61q0 64 69 109h-9q-105 0 -184 46t-122 127t-45 186q2 105 45 186t122 127t184 46t183.5 -46t122 -127.5t45.5 -185.5q-2 -124 -60 -211t-165 -129q-44 -17 -78.5 -47t-34.5 -62q0 -47 51 -47q15 0 35 6q6 2 9 2q10 0 16 -6t6 -16t-11 -18
q-34 -24 -86 -24q-38 0 -65.5 23zM545 111q59 36 90 98t31 140t-31 140t-90 98t-139 36q-81 0 -139.5 -36t-89.5 -98t-31 -140t31 -140t89.5 -98t139.5 -36q80 0 139 36z" />
    <glyph glyph-name="uni01EB" unicode="&#x1eb;" horiz-adv-x="608" 
d="M252.5 -180q-27.5 23 -27.5 61q0 64 69 109q-74 2 -129.5 35.5t-86 93t-30.5 136.5q0 78 31.5 138.5t89.5 93.5t135 33q76 0 134 -33t90 -93.5t32 -138.5q0 -88 -40.5 -152t-108.5 -92q-45 -18 -79 -49t-34 -62q0 -47 51 -47q15 0 35 6q6 2 9 2q10 0 16 -6t6 -16t-11 -18
q-34 -24 -86 -24q-38 0 -65.5 23zM382.5 92q37.5 19 62 60t24.5 104q0 62 -24.5 103t-62 59.5t-78.5 18.5q-42 0 -79.5 -18.5t-61.5 -59.5t-24 -103q0 -63 24 -104t61.5 -60t79.5 -19q41 0 78.5 19z" />
    <glyph glyph-name="Aringacute" unicode="&#x1fa;" horiz-adv-x="746" 
d="M446 900q-6 6 -6 14q0 10 5 20l36 61q14 24 32 24q14 0 24 -9t10 -23q0 -15 -13 -28l-51 -55q-10 -10 -22 -10q-9 0 -15 6zM306.5 750.5q-27.5 27.5 -27.5 66.5t27.5 66.5t66.5 27.5t66.5 -27.5t27.5 -66.5t-27.5 -66.5t-66.5 -27.5t-66.5 27.5zM407.5 782.5
q14.5 14.5 14.5 34.5t-14.5 34.5t-34.5 14.5t-34.5 -14.5t-14.5 -34.5t14.5 -34.5t34.5 -14.5t34.5 14.5zM62.5 8q-12.5 13 -12.5 32q0 8 5 20l255 602q8 18 22.5 29.5t35.5 11.5h10q21 0 35.5 -11.5t22.5 -29.5l255 -602q5 -12 5 -20q0 -19 -12.5 -32t-32.5 -13
q-14 0 -25.5 7.5t-17.5 20.5l-65 156h-340l-65 -156q-6 -13 -17.5 -20.5t-25.5 -7.5q-20 0 -32.5 13zM238 262h270l-135 325z" />
    <glyph glyph-name="aringacute" unicode="&#x1fb;" horiz-adv-x="562" 
d="M344 728q-6 6 -6 14q0 10 5 20l36 61q14 24 32 24q14 0 24 -9t10 -23q0 -15 -13 -28l-51 -55q-10 -10 -22 -10q-9 0 -15 6zM204.5 578.5q-27.5 27.5 -27.5 66.5t27.5 66.5t66.5 27.5t66.5 -27.5t27.5 -66.5t-27.5 -66.5t-66.5 -27.5t-66.5 27.5zM305.5 610.5
q14.5 14.5 14.5 34.5t-14.5 34.5t-34.5 14.5t-34.5 -14.5t-14.5 -34.5t14.5 -34.5t34.5 -14.5t34.5 14.5zM127.5 8q-37.5 18 -59.5 52.5t-22 79.5q0 74 58.5 118t171.5 44h121v8q0 66 -32.5 95t-101.5 29q-38 0 -67.5 -6t-65.5 -18q-8 -2 -13 -2q-15 0 -26 11t-11 27
q0 27 26 38q85 36 173 36q69 0 116.5 -28t70 -72.5t22.5 -96.5v-283q0 -19 -13.5 -32t-32.5 -13t-32 13t-13 32v26q-74 -76 -188 -76q-44 0 -81.5 18zM328 91.5q41 21.5 69 53.5v84h-109q-151 0 -151 -79q0 -36 24.5 -58t81.5 -22q44 0 85 21.5z" />
    <glyph glyph-name="AEacute" unicode="&#x1fc;" horiz-adv-x="1040" 
d="M15.5 8q-13.5 13 -13.5 32q0 13 10 28l399 605q8 11 20 18t26 7h488q18 0 30.5 -12.5t12.5 -30.5t-12.5 -30t-30.5 -12h-355v-221h319q18 0 30.5 -12.5t12.5 -30.5t-12.5 -30t-30.5 -12h-319v-222h355q18 0 30.5 -12.5t12.5 -30.5t-12.5 -30t-30.5 -12h-401q-19 0 -32 13
t-13 32v134h-308l-102 -158q-17 -26 -41 -26q-19 0 -32.5 13zM245 262h254v351h-25zM525.5 746.5q-7.5 7.5 -7.5 19.5q0 9 7 19l51 90q10 19 33 19q16 0 26.5 -10t10.5 -27q0 -14 -10 -25l-69 -82q-9 -11 -22 -11q-12 0 -19.5 7.5z" />
    <glyph glyph-name="aeacute" unicode="&#x1fd;" horiz-adv-x="911" 
d="M143.5 8q-44.5 18 -71 52t-26.5 80q0 73 58.5 116t171.5 43h121v11q0 66 -32.5 95t-101.5 29q-38 0 -67.5 -6t-65.5 -18q-8 -2 -13 -2q-15 0 -26 11t-11 27q0 27 26 38q85 36 173 36q62 0 104.5 -22.5t66.5 -61.5q63 84 181 84q73 0 127 -32.5t83 -89.5t29 -129
q0 -17 -12 -30t-32 -13h-344q8 -71 51 -111t126 -40q42 0 73.5 8t61.5 23q8 4 18 4q16 0 28 -11t12 -28q0 -22 -26 -37q-39 -22 -77 -33t-98 -11q-68 0 -119 22.5t-84 64.5q-32 -49 -87.5 -68t-118.5 -19q-54 0 -98.5 18zM780 299q-3 49 -25.5 81.5t-55.5 47.5t-68 15
t-68 -15t-55.5 -47.5t-25.5 -81.5h298zM357 92q40 22 40 77v57h-109q-74 0 -112.5 -17.5t-38.5 -58.5q0 -34 32.5 -57t90.5 -23q57 0 97 22zM435.5 574.5q-7.5 7.5 -7.5 19.5q0 9 7 19l51 90q10 19 33 19q16 0 26.5 -10t10.5 -27q0 -14 -10 -25l-69 -82q-9 -11 -22 -11
q-12 0 -19.5 7.5z" />
    <glyph glyph-name="Oslashacute" unicode="&#x1fe;" horiz-adv-x="812" 
d="M140 -23q-7 7 -7 17q0 8 6 17l39 55q-58 48 -90 121t-33 162q2 105 45 186t122 127t184 46q106 0 188 -49l40 58q7 10 21 10q11 0 18 -7t7 -17q0 -8 -6 -17l-39 -56q57 -48 88.5 -120.5t33.5 -160.5q-2 -104 -45.5 -185.5t-122 -127.5t-183.5 -46q-106 0 -187 47l-40 -57
q-7 -10 -21 -10q-11 0 -18 7zM543 588q-60 35 -137 35q-81 0 -139.5 -36t-89.5 -98t-31 -140q0 -65 21.5 -119t61.5 -91zM545 111q59 36 90 98t31 140q0 63 -21 117.5t-61 91.5l-315 -449q59 -34 137 -34q80 0 139 36zM386.5 746.5q-7.5 7.5 -7.5 19.5q0 9 7 19l51 90
q10 19 33 19q16 0 26.5 -10t10.5 -27q0 -14 -10 -25l-69 -82q-9 -11 -22 -11q-12 0 -19.5 7.5z" />
    <glyph glyph-name="oslashacute" unicode="&#x1ff;" horiz-adv-x="608" 
d="M102 -24q-7 7 -7 17q0 8 6 17l29 41q-39 36 -60.5 88t-21.5 116q0 78 31.5 138.5t89.5 93.5t135 33q71 0 132 -32l29 41q7 10 21 10q11 0 18 -7t7 -17q0 -8 -6 -17l-28 -40q40 -35 61.5 -87t21.5 -116q0 -78 -32 -138.5t-90 -93.5t-134 -33q-75 0 -133 32l-30 -43
q-7 -10 -21 -10q-11 0 -18 7zM386 416q-39 21 -82 21q-42 0 -79.5 -18.5t-61.5 -59.5t-24 -103q0 -83 43 -131zM382.5 92q37.5 19 62 60t24.5 104q0 79 -43 129l-204 -291q36 -21 82 -21q41 0 78.5 19zM284.5 574.5q-7.5 7.5 -7.5 19.5q0 9 7 19l51 90q10 19 33 19
q16 0 26.5 -10t10.5 -27q0 -14 -10 -25l-69 -82q-9 -11 -22 -11q-12 0 -19.5 7.5z" />
    <glyph glyph-name="uni0200" unicode="&#x200;" horiz-adv-x="746" 
d="M62.5 8q-12.5 13 -12.5 32q0 8 5 20l255 602q8 18 22.5 29.5t35.5 11.5h10q21 0 35.5 -11.5t22.5 -29.5l255 -602q5 -12 5 -20q0 -19 -12.5 -32t-32.5 -13q-14 0 -25.5 7.5t-17.5 20.5l-65 156h-340l-65 -156q-6 -13 -17.5 -20.5t-25.5 -7.5q-20 0 -32.5 13zM238 262h270
l-135 325zM276.5 746.5q-7.5 7.5 -7.5 19.5q0 9 7 19l51 90q10 19 33 19q16 0 26.5 -10t10.5 -27q0 -14 -10 -25l-69 -82q-9 -11 -22 -11q-12 0 -19.5 7.5zM430.5 746.5q-7.5 7.5 -7.5 19.5q0 9 7 19l51 90q10 19 33 19q16 0 26.5 -10t10.5 -27q0 -14 -10 -25l-69 -82
q-9 -11 -22 -11q-12 0 -19.5 7.5z" />
    <glyph glyph-name="uni0201" unicode="&#x201;" horiz-adv-x="562" 
d="M127.5 8q-37.5 18 -59.5 52.5t-22 79.5q0 74 58.5 118t171.5 44h121v8q0 66 -32.5 95t-101.5 29q-38 0 -67.5 -6t-65.5 -18q-8 -2 -13 -2q-15 0 -26 11t-11 27q0 27 26 38q85 36 173 36q69 0 116.5 -28t70 -72.5t22.5 -96.5v-283q0 -19 -13.5 -32t-32.5 -13t-32 13
t-13 32v26q-74 -76 -188 -76q-44 0 -81.5 18zM328 91.5q41 21.5 69 53.5v84h-109q-151 0 -151 -79q0 -36 24.5 -58t81.5 -22q44 0 85 21.5zM182.5 574.5q-7.5 7.5 -7.5 19.5q0 9 7 19l51 90q10 19 33 19q16 0 26.5 -10t10.5 -27q0 -14 -10 -25l-69 -82q-9 -11 -22 -11
q-12 0 -19.5 7.5zM336.5 574.5q-7.5 7.5 -7.5 19.5q0 9 7 19l51 90q10 19 33 19q16 0 26.5 -10t10.5 -27q0 -14 -10 -25l-69 -82q-9 -11 -22 -11q-12 0 -19.5 7.5z" />
    <glyph glyph-name="uni0202" unicode="&#x202;" horiz-adv-x="746" 
d="M62.5 8q-12.5 13 -12.5 32q0 8 5 20l255 602q8 18 22.5 29.5t35.5 11.5h10q21 0 35.5 -11.5t22.5 -29.5l255 -602q5 -12 5 -20q0 -19 -12.5 -32t-32.5 -13q-14 0 -25.5 7.5t-17.5 20.5l-65 156h-340l-65 -156q-6 -13 -17.5 -20.5t-25.5 -7.5q-20 0 -32.5 13zM238 262h270
l-135 325zM238.5 748q-8.5 9 -8.5 22q0 8 3 14q19 37 56 59t84 22t84 -22t56 -59q3 -6 3 -14q0 -13 -8.5 -22t-22.5 -9q-19 0 -28 19q-11 23 -33 36t-51 13t-51 -13t-33 -36q-9 -19 -28 -19q-14 0 -22.5 9z" />
    <glyph glyph-name="uni0203" unicode="&#x203;" horiz-adv-x="562" 
d="M127.5 8q-37.5 18 -59.5 52.5t-22 79.5q0 74 58.5 118t171.5 44h121v8q0 66 -32.5 95t-101.5 29q-38 0 -67.5 -6t-65.5 -18q-8 -2 -13 -2q-15 0 -26 11t-11 27q0 27 26 38q85 36 173 36q69 0 116.5 -28t70 -72.5t22.5 -96.5v-283q0 -19 -13.5 -32t-32.5 -13t-32 13
t-13 32v26q-74 -76 -188 -76q-44 0 -81.5 18zM328 91.5q41 21.5 69 53.5v84h-109q-151 0 -151 -79q0 -36 24.5 -58t81.5 -22q44 0 85 21.5zM144.5 576q-8.5 9 -8.5 22q0 8 3 14q19 37 56 59t84 22t84 -22t56 -59q3 -6 3 -14q0 -13 -8.5 -22t-22.5 -9q-19 0 -28 19
q-11 23 -33 36t-51 13t-51 -13t-33 -36q-9 -19 -28 -19q-14 0 -22.5 9z" />
    <glyph glyph-name="uni0204" unicode="&#x204;" horiz-adv-x="638" 
d="M110 13q-13 13 -13 32v607q0 19 13 32.5t32 13.5h401q18 0 30.5 -12.5t12.5 -30.5t-12.5 -30t-30.5 -12h-355v-221h319q18 0 30.5 -12.5t12.5 -30.5t-12.5 -30t-30.5 -12h-319v-222h355q18 0 30.5 -12.5t12.5 -30.5t-12.5 -30t-30.5 -12h-401q-19 0 -32 13zM245.5 746.5
q-7.5 7.5 -7.5 19.5q0 9 7 19l51 90q10 19 33 19q16 0 26.5 -10t10.5 -27q0 -14 -10 -25l-69 -82q-9 -11 -22 -11q-12 0 -19.5 7.5zM399.5 746.5q-7.5 7.5 -7.5 19.5q0 9 7 19l51 90q10 19 33 19q16 0 26.5 -10t10.5 -27q0 -14 -10 -25l-69 -82q-9 -11 -22 -11
q-12 0 -19.5 7.5z" />
    <glyph glyph-name="uni0205" unicode="&#x205;" horiz-adv-x="566" 
d="M116.5 59.5q-68.5 69.5 -68.5 195.5q0 71 26 131t80 97t133 37q74 0 128 -34.5t82 -92t28 -125.5q0 -19 -12.5 -32t-33.5 -13h-339q8 -70 52 -109t123 -39q42 0 73.5 8t61.5 23q8 4 18 4q16 0 28 -11t12 -28q0 -22 -26 -37q-39 -22 -77 -33t-98 -11q-122 0 -190.5 69.5z
M435 297q-3 49 -25.5 82t-55.5 48.5t-67 15.5t-67 -15.5t-55 -48.5t-25 -82h295zM188.5 574.5q-7.5 7.5 -7.5 19.5q0 9 7 19l51 90q10 19 33 19q16 0 26.5 -10t10.5 -27q0 -14 -10 -25l-69 -82q-9 -11 -22 -11q-12 0 -19.5 7.5zM342.5 574.5q-7.5 7.5 -7.5 19.5q0 9 7 19
l51 90q10 19 33 19q16 0 26.5 -10t10.5 -27q0 -14 -10 -25l-69 -82q-9 -11 -22 -11q-12 0 -19.5 7.5z" />
    <glyph glyph-name="uni0206" unicode="&#x206;" horiz-adv-x="638" 
d="M110 13q-13 13 -13 32v607q0 19 13 32.5t32 13.5h401q18 0 30.5 -12.5t12.5 -30.5t-12.5 -30t-30.5 -12h-355v-221h319q18 0 30.5 -12.5t12.5 -30.5t-12.5 -30t-30.5 -12h-319v-222h355q18 0 30.5 -12.5t12.5 -30.5t-12.5 -30t-30.5 -12h-401q-19 0 -32 13zM207.5 748
q-8.5 9 -8.5 22q0 8 3 14q19 37 56 59t84 22t84 -22t56 -59q3 -6 3 -14q0 -13 -8.5 -22t-22.5 -9q-19 0 -28 19q-11 23 -33 36t-51 13t-51 -13t-33 -36q-9 -19 -28 -19q-14 0 -22.5 9z" />
    <glyph glyph-name="uni0207" unicode="&#x207;" horiz-adv-x="566" 
d="M116.5 59.5q-68.5 69.5 -68.5 195.5q0 71 26 131t80 97t133 37q74 0 128 -34.5t82 -92t28 -125.5q0 -19 -12.5 -32t-33.5 -13h-339q8 -70 52 -109t123 -39q42 0 73.5 8t61.5 23q8 4 18 4q16 0 28 -11t12 -28q0 -22 -26 -37q-39 -22 -77 -33t-98 -11q-122 0 -190.5 69.5z
M435 297q-3 49 -25.5 82t-55.5 48.5t-67 15.5t-67 -15.5t-55 -48.5t-25 -82h295zM150.5 576q-8.5 9 -8.5 22q0 8 3 14q19 37 56 59t84 22t84 -22t56 -59q3 -6 3 -14q0 -13 -8.5 -22t-22.5 -9q-19 0 -28 19q-11 23 -33 36t-51 13t-51 -13t-33 -36q-9 -19 -28 -19
q-14 0 -22.5 9z" />
    <glyph glyph-name="uni0208" unicode="&#x208;" horiz-adv-x="285" 
d="M110 8q-13 13 -13 32v617q0 19 13 32.5t32 13.5t32.5 -13.5t13.5 -32.5v-617q0 -19 -13.5 -32t-32.5 -13t-32 13zM46.5 746.5q-7.5 7.5 -7.5 19.5q0 9 7 19l51 90q10 19 33 19q16 0 26.5 -10t10.5 -27q0 -14 -10 -25l-69 -82q-9 -11 -22 -11q-12 0 -19.5 7.5z
M200.5 746.5q-7.5 7.5 -7.5 19.5q0 9 7 19l51 90q10 19 33 19q16 0 26.5 -10t10.5 -27q0 -14 -10 -25l-69 -82q-9 -11 -22 -11q-12 0 -19.5 7.5z" />
    <glyph glyph-name="uni0209" unicode="&#x209;" horiz-adv-x="249" 
d="M92 8q-13 13 -13 32v429q0 19 13 32.5t32 13.5q20 0 33 -13t13 -33v-429q0 -19 -13.5 -32t-32.5 -13t-32 13zM28.5 574.5q-7.5 7.5 -7.5 19.5q0 9 7 19l51 90q10 19 33 19q16 0 26.5 -10t10.5 -27q0 -14 -10 -25l-69 -82q-9 -11 -22 -11q-12 0 -19.5 7.5zM182.5 574.5
q-7.5 7.5 -7.5 19.5q0 9 7 19l51 90q10 19 33 19q16 0 26.5 -10t10.5 -27q0 -14 -10 -25l-69 -82q-9 -11 -22 -11q-12 0 -19.5 7.5z" />
    <glyph glyph-name="uni020A" unicode="&#x20a;" horiz-adv-x="285" 
d="M110 8q-13 13 -13 32v617q0 19 13 32.5t32 13.5t32.5 -13.5t13.5 -32.5v-617q0 -19 -13.5 -32t-32.5 -13t-32 13zM8.5 748q-8.5 9 -8.5 22q0 8 3 14q19 37 56 59t84 22t84 -22t56 -59q3 -6 3 -14q0 -13 -8.5 -22t-22.5 -9q-19 0 -28 19q-11 23 -33 36t-51 13t-51 -13
t-33 -36q-9 -19 -28 -19q-14 0 -22.5 9z" />
    <glyph glyph-name="uni020B" unicode="&#x20b;" horiz-adv-x="249" 
d="M92 8q-13 13 -13 32v429q0 19 13 32.5t32 13.5q20 0 33 -13t13 -33v-429q0 -19 -13.5 -32t-32.5 -13t-32 13zM-9.5 576q-8.5 9 -8.5 22q0 8 3 14q19 37 56 59t84 22t84 -22t56 -59q3 -6 3 -14q0 -13 -8.5 -22t-22.5 -9q-19 0 -28 19q-11 23 -33 36t-51 13t-51 -13
t-33 -36q-9 -19 -28 -19q-14 0 -22.5 9z" />
    <glyph glyph-name="uni020C" unicode="&#x20c;" horiz-adv-x="812" 
d="M222 36q-79 46 -122 127t-45 186q2 105 45 186t122 127t184 46t183.5 -46t122 -127.5t45.5 -185.5q-2 -104 -45.5 -185.5t-122 -127.5t-183.5 -46t-184 46zM545 111q59 36 90 98t31 140t-31 140t-90 98t-139 36q-81 0 -139.5 -36t-89.5 -98t-31 -140t31 -140t89.5 -98
t139.5 -36q80 0 139 36zM309.5 746.5q-7.5 7.5 -7.5 19.5q0 9 7 19l51 90q10 19 33 19q16 0 26.5 -10t10.5 -27q0 -14 -10 -25l-69 -82q-9 -11 -22 -11q-12 0 -19.5 7.5zM463.5 746.5q-7.5 7.5 -7.5 19.5q0 9 7 19l51 90q10 19 33 19q16 0 26.5 -10t10.5 -27q0 -14 -10 -25
l-69 -82q-9 -11 -22 -11q-12 0 -19.5 7.5z" />
    <glyph glyph-name="uni020D" unicode="&#x20d;" horiz-adv-x="608" 
d="M169 23q-58 33 -89.5 93.5t-31.5 138.5t31.5 138.5t89.5 93.5t135 33q76 0 134 -33t90 -93.5t32 -138.5t-32 -138.5t-90 -93.5t-134 -33q-77 0 -135 33zM382.5 92q37.5 19 62 60t24.5 104q0 62 -24.5 103t-62 59.5t-78.5 18.5q-42 0 -79.5 -18.5t-61.5 -59.5t-24 -103
q0 -63 24 -104t61.5 -60t79.5 -19q41 0 78.5 19zM207.5 574.5q-7.5 7.5 -7.5 19.5q0 9 7 19l51 90q10 19 33 19q16 0 26.5 -10t10.5 -27q0 -14 -10 -25l-69 -82q-9 -11 -22 -11q-12 0 -19.5 7.5zM361.5 574.5q-7.5 7.5 -7.5 19.5q0 9 7 19l51 90q10 19 33 19q16 0 26.5 -10
t10.5 -27q0 -14 -10 -25l-69 -82q-9 -11 -22 -11q-12 0 -19.5 7.5z" />
    <glyph glyph-name="uni020E" unicode="&#x20e;" horiz-adv-x="812" 
d="M222 36q-79 46 -122 127t-45 186q2 105 45 186t122 127t184 46t183.5 -46t122 -127.5t45.5 -185.5q-2 -104 -45.5 -185.5t-122 -127.5t-183.5 -46t-184 46zM545 111q59 36 90 98t31 140t-31 140t-90 98t-139 36q-81 0 -139.5 -36t-89.5 -98t-31 -140t31 -140t89.5 -98
t139.5 -36q80 0 139 36zM271.5 748q-8.5 9 -8.5 22q0 8 3 14q19 37 56 59t84 22t84 -22t56 -59q3 -6 3 -14q0 -13 -8.5 -22t-22.5 -9q-19 0 -28 19q-11 23 -33 36t-51 13t-51 -13t-33 -36q-9 -19 -28 -19q-14 0 -22.5 9z" />
    <glyph glyph-name="uni020F" unicode="&#x20f;" horiz-adv-x="608" 
d="M169 23q-58 33 -89.5 93.5t-31.5 138.5t31.5 138.5t89.5 93.5t135 33q76 0 134 -33t90 -93.5t32 -138.5t-32 -138.5t-90 -93.5t-134 -33q-77 0 -135 33zM382.5 92q37.5 19 62 60t24.5 104q0 62 -24.5 103t-62 59.5t-78.5 18.5q-42 0 -79.5 -18.5t-61.5 -59.5t-24 -103
q0 -63 24 -104t61.5 -60t79.5 -19q41 0 78.5 19zM169.5 576q-8.5 9 -8.5 22q0 8 3 14q19 37 56 59t84 22t84 -22t56 -59q3 -6 3 -14q0 -13 -8.5 -22t-22.5 -9q-19 0 -28 19q-11 23 -33 36t-51 13t-51 -13t-33 -36q-9 -19 -28 -19q-14 0 -22.5 9z" />
    <glyph glyph-name="uni0210" unicode="&#x210;" horiz-adv-x="712" 
d="M110 8q-13 13 -13 32v612q0 19 13 32.5t32 13.5h233q136 0 204 -56t68 -147q0 -60 -33.5 -109.5t-97.5 -71.5q72 -19 98.5 -89.5t26.5 -138.5v-46q0 -19 -13 -32t-32 -13q-21 0 -33.5 12.5t-12.5 32.5v30q0 50 -9 92.5t-43 76t-103 33.5h-207v-232q0 -19 -13.5 -32
t-32.5 -13t-32 13zM369 358q86 0 136.5 34t50.5 96q0 60 -43.5 92t-148.5 32h-176v-254h181zM259.5 746.5q-7.5 7.5 -7.5 19.5q0 9 7 19l51 90q10 19 33 19q16 0 26.5 -10t10.5 -27q0 -14 -10 -25l-69 -82q-9 -11 -22 -11q-12 0 -19.5 7.5zM413.5 746.5q-7.5 7.5 -7.5 19.5
q0 9 7 19l51 90q10 19 33 19q16 0 26.5 -10t10.5 -27q0 -14 -10 -25l-69 -82q-9 -11 -22 -11q-12 0 -19.5 7.5z" />
    <glyph glyph-name="uni0211" unicode="&#x211;" horiz-adv-x="383" 
d="M92 8q-13 13 -13 32v429q0 19 13 32.5t32 13.5t32.5 -13.5t13.5 -32.5v-43q70 94 157 94h5q19 0 31.5 -13t12.5 -32t-13 -31t-33 -12h-5q-48 0 -88 -23.5t-67 -64.5v-304q0 -19 -13.5 -32t-32.5 -13t-32 13zM111.5 574.5q-7.5 7.5 -7.5 19.5q0 9 7 19l51 90q10 19 33 19
q16 0 26.5 -10t10.5 -27q0 -14 -10 -25l-69 -82q-9 -11 -22 -11q-12 0 -19.5 7.5zM265.5 574.5q-7.5 7.5 -7.5 19.5q0 9 7 19l51 90q10 19 33 19q16 0 26.5 -10t10.5 -27q0 -14 -10 -25l-69 -82q-9 -11 -22 -11q-12 0 -19.5 7.5z" />
    <glyph glyph-name="uni0212" unicode="&#x212;" horiz-adv-x="712" 
d="M110 8q-13 13 -13 32v612q0 19 13 32.5t32 13.5h233q136 0 204 -56t68 -147q0 -60 -33.5 -109.5t-97.5 -71.5q72 -19 98.5 -89.5t26.5 -138.5v-46q0 -19 -13 -32t-32 -13q-21 0 -33.5 12.5t-12.5 32.5v30q0 50 -9 92.5t-43 76t-103 33.5h-207v-232q0 -19 -13.5 -32
t-32.5 -13t-32 13zM369 358q86 0 136.5 34t50.5 96q0 60 -43.5 92t-148.5 32h-176v-254h181zM221.5 748q-8.5 9 -8.5 22q0 8 3 14q19 37 56 59t84 22t84 -22t56 -59q3 -6 3 -14q0 -13 -8.5 -22t-22.5 -9q-19 0 -28 19q-11 23 -33 36t-51 13t-51 -13t-33 -36q-9 -19 -28 -19
q-14 0 -22.5 9z" />
    <glyph glyph-name="uni0213" unicode="&#x213;" horiz-adv-x="383" 
d="M92 8q-13 13 -13 32v429q0 19 13 32.5t32 13.5t32.5 -13.5t13.5 -32.5v-43q70 94 157 94h5q19 0 31.5 -13t12.5 -32t-13 -31t-33 -12h-5q-48 0 -88 -23.5t-67 -64.5v-304q0 -19 -13.5 -32t-32.5 -13t-32 13zM73.5 576q-8.5 9 -8.5 22q0 8 3 14q19 37 56 59t84 22t84 -22
t56 -59q3 -6 3 -14q0 -13 -8.5 -22t-22.5 -9q-19 0 -28 19q-11 23 -33 36t-51 13t-51 -13t-33 -36q-9 -19 -28 -19q-14 0 -22.5 9z" />
    <glyph glyph-name="uni0214" unicode="&#x214;" horiz-adv-x="758" 
d="M242 20q-66 30 -108 91.5t-42 150.5v395q0 19 13 32.5t32 13.5t32.5 -13.5t13.5 -32.5v-398q0 -60 27.5 -102t72.5 -63t96 -21t96 21t72.5 63t27.5 102v398q0 19 13 32.5t32 13.5t32.5 -13.5t13.5 -32.5v-395q0 -89 -42 -150.5t-108 -91.5t-137 -30t-137 30zM282.5 746.5
q-7.5 7.5 -7.5 19.5q0 9 7 19l51 90q10 19 33 19q16 0 26.5 -10t10.5 -27q0 -14 -10 -25l-69 -82q-9 -11 -22 -11q-12 0 -19.5 7.5zM436.5 746.5q-7.5 7.5 -7.5 19.5q0 9 7 19l51 90q10 19 33 19q16 0 26.5 -10t10.5 -27q0 -14 -10 -25l-69 -82q-9 -11 -22 -11
q-12 0 -19.5 7.5z" />
    <glyph glyph-name="uni0215" unicode="&#x215;" horiz-adv-x="609" 
d="M157.5 16q-40.5 26 -62 71t-21.5 99v284q0 19 13.5 32t32.5 13t32 -13t13 -32v-274q0 -122 110 -122q50 0 89.5 26t74.5 70v300q0 19 13.5 32t32.5 13t32 -13t13 -32v-429q0 -19 -13 -32.5t-32 -13.5t-32.5 13.5t-13.5 32.5v41q-38 -42 -82 -67t-104 -25q-55 0 -95.5 26z
M208.5 574.5q-7.5 7.5 -7.5 19.5q0 9 7 19l51 90q10 19 33 19q16 0 26.5 -10t10.5 -27q0 -14 -10 -25l-69 -82q-9 -11 -22 -11q-12 0 -19.5 7.5zM362.5 574.5q-7.5 7.5 -7.5 19.5q0 9 7 19l51 90q10 19 33 19q16 0 26.5 -10t10.5 -27q0 -14 -10 -25l-69 -82q-9 -11 -22 -11
q-12 0 -19.5 7.5z" />
    <glyph glyph-name="uni0216" unicode="&#x216;" horiz-adv-x="758" 
d="M242 20q-66 30 -108 91.5t-42 150.5v395q0 19 13 32.5t32 13.5t32.5 -13.5t13.5 -32.5v-398q0 -60 27.5 -102t72.5 -63t96 -21t96 21t72.5 63t27.5 102v398q0 19 13 32.5t32 13.5t32.5 -13.5t13.5 -32.5v-395q0 -89 -42 -150.5t-108 -91.5t-137 -30t-137 30zM244.5 748
q-8.5 9 -8.5 22q0 8 3 14q19 37 56 59t84 22t84 -22t56 -59q3 -6 3 -14q0 -13 -8.5 -22t-22.5 -9q-19 0 -28 19q-11 23 -33 36t-51 13t-51 -13t-33 -36q-9 -19 -28 -19q-14 0 -22.5 9z" />
    <glyph glyph-name="uni0217" unicode="&#x217;" horiz-adv-x="609" 
d="M157.5 16q-40.5 26 -62 71t-21.5 99v284q0 19 13.5 32t32.5 13t32 -13t13 -32v-274q0 -122 110 -122q50 0 89.5 26t74.5 70v300q0 19 13.5 32t32.5 13t32 -13t13 -32v-429q0 -19 -13 -32.5t-32 -13.5t-32.5 13.5t-13.5 32.5v41q-38 -42 -82 -67t-104 -25q-55 0 -95.5 26z
M170.5 576q-8.5 9 -8.5 22q0 8 3 14q19 37 56 59t84 22t84 -22t56 -59q3 -6 3 -14q0 -13 -8.5 -22t-22.5 -9q-19 0 -28 19q-11 23 -33 36t-51 13t-51 -13t-33 -36q-9 -19 -28 -19q-14 0 -22.5 9z" />
    <glyph glyph-name="Scommaaccent" unicode="&#x218;" horiz-adv-x="616" 
d="M79 38q-12 5 -20 16.5t-8 24.5q0 17 11.5 29.5t29.5 12.5q10 0 19 -4q92 -41 197 -41q175 0 175 115q0 30 -22.5 50t-55.5 31.5t-94 27.5q-81 21 -131 40.5t-86 58.5t-36 104q0 57 30 103.5t88.5 74t140.5 27.5q110 0 199 -33q28 -10 28 -40q0 -16 -11 -29t-29 -13
q-6 0 -16 4q-78 27 -161 27q-79 0 -128.5 -30t-49.5 -84q0 -36 23.5 -58.5t59 -35t96.5 -26.5q79 -19 127.5 -38t83 -59t34.5 -108q0 -56 -32 -100.5t-90 -69.5t-134 -25q-127 0 -238 48zM262.5 -256.5q-6.5 6.5 -6.5 16.5q0 13 12 21q21 13 32 25.5t11 30.5
q-22 0 -35.5 13.5t-13.5 34.5t14.5 36t35.5 15q22 0 36 -15t14 -38v-33q0 -39 -19 -64.5t-49 -43.5q-8 -5 -16 -5q-9 0 -15.5 6.5z" />
    <glyph glyph-name="scommaaccent" unicode="&#x219;" horiz-adv-x="480" 
d="M62 35q-17 12 -17 33q0 16 11 28t28 12q9 0 18 -4q32 -14 64 -22t72 -8q111 0 111 71q0 23 -25.5 35t-83.5 27q-59 14 -97.5 29t-66 45.5t-27.5 80.5q0 70 50.5 114t144.5 44q77 0 145 -25q14 -4 21.5 -15t7.5 -23q0 -16 -11.5 -28t-28.5 -12q-5 0 -13 2q-58 18 -114 18
q-54 0 -84.5 -19.5t-30.5 -50.5q0 -30 28 -44t87 -27q59 -15 96 -29.5t63.5 -45.5t26.5 -83q0 -64 -50.5 -106t-142.5 -42q-100 0 -182 45zM191.5 -256.5q-6.5 6.5 -6.5 16.5q0 13 12 21q21 13 32 25.5t11 30.5q-22 0 -35.5 13.5t-13.5 34.5t14.5 36t35.5 15q22 0 36 -15
t14 -38v-33q0 -39 -19 -64.5t-49 -43.5q-8 -5 -16 -5q-9 0 -15.5 6.5z" />
    <glyph glyph-name="uni021A" unicode="&#x21a;" horiz-adv-x="609" 
d="M272 8q-13 13 -13 32v573h-204q-18 0 -30 12t-12 30t12 30.5t30 12.5h498q18 0 30.5 -12.5t12.5 -30.5t-12.5 -30t-30.5 -12h-203v-573q0 -19 -13.5 -32t-32.5 -13t-32 13zM259.5 -256.5q-6.5 6.5 -6.5 16.5q0 13 12 21q21 13 32 25.5t11 30.5q-22 0 -35.5 13.5
t-13.5 34.5t14.5 36t35.5 15q22 0 36 -15t14 -38v-33q0 -39 -19 -64.5t-49 -43.5q-8 -5 -16 -5q-9 0 -15.5 6.5z" />
    <glyph glyph-name="uni021B" unicode="&#x21b;" horiz-adv-x="382" 
d="M109 122v310h-71q-8 0 -13.5 5.5t-5.5 13.5q0 10 9 17l136 133q9 9 17 9t13.5 -6t5.5 -14v-80h113q17 0 28 -11t11 -28q0 -16 -11 -27.5t-28 -11.5h-113v-302q0 -39 18.5 -49.5t46.5 -10.5q20 0 40 6q4 1 8.5 2t11.5 1q14 0 25 -10.5t11 -25.5q0 -23 -23 -35
q-39 -18 -83 -18q-146 0 -146 132zM172.5 -256.5q-6.5 6.5 -6.5 16.5q0 13 12 21q21 13 32 25.5t11 30.5q-22 0 -35.5 13.5t-13.5 34.5t14.5 36t35.5 15q22 0 36 -15t14 -38v-33q0 -39 -19 -64.5t-49 -43.5q-8 -5 -16 -5q-9 0 -15.5 6.5z" />
    <glyph glyph-name="uni022A" unicode="&#x22a;" horiz-adv-x="812" 
d="M222 36q-79 46 -122 127t-45 186q2 105 45 186t122 127t184 46t183.5 -46t122 -127.5t45.5 -185.5q-2 -104 -45.5 -185.5t-122 -127.5t-183.5 -46t-184 46zM545 111q59 36 90 98t31 140t-31 140t-90 98t-139 36q-81 0 -139.5 -36t-89.5 -98t-31 -140t31 -140t89.5 -98
t139.5 -36q80 0 139 36zM286 762q-15 15 -15 36t15 36t36 15t36 -15t15 -36t-15 -36t-36 -15t-36 15zM454 762q-15 15 -15 36t15 36t36 15t36 -15t15 -36t-15 -36t-36 -15t-36 15zM267.5 899.5q-8.5 8.5 -8.5 21.5t8.5 21.5t21.5 8.5h234q13 0 21.5 -8.5t8.5 -21.5
t-8.5 -21.5t-21.5 -8.5h-234q-13 0 -21.5 8.5z" />
    <glyph glyph-name="uni022B" unicode="&#x22b;" horiz-adv-x="608" 
d="M169 23q-58 33 -89.5 93.5t-31.5 138.5t31.5 138.5t89.5 93.5t135 33q76 0 134 -33t90 -93.5t32 -138.5t-32 -138.5t-90 -93.5t-134 -33q-77 0 -135 33zM382.5 92q37.5 19 62 60t24.5 104q0 62 -24.5 103t-62 59.5t-78.5 18.5q-42 0 -79.5 -18.5t-61.5 -59.5t-24 -103
q0 -63 24 -104t61.5 -60t79.5 -19q41 0 78.5 19zM184 590q-15 15 -15 36t15 36t36 15t36 -15t15 -36t-15 -36t-36 -15t-36 15zM352 590q-15 15 -15 36t15 36t36 15t36 -15t15 -36t-15 -36t-36 -15t-36 15zM165.5 733.5q-8.5 8.5 -8.5 21.5t8.5 21.5t21.5 8.5h234
q13 0 21.5 -8.5t8.5 -21.5t-8.5 -21.5t-21.5 -8.5h-234q-13 0 -21.5 8.5z" />
    <glyph glyph-name="uni022C" unicode="&#x22c;" horiz-adv-x="812" 
d="M222 36q-79 46 -122 127t-45 186q2 105 45 186t122 127t184 46t183.5 -46t122 -127.5t45.5 -185.5q-2 -104 -45.5 -185.5t-122 -127.5t-183.5 -46t-184 46zM545 111q59 36 90 98t31 140t-31 140t-90 98t-139 36q-81 0 -139.5 -36t-89.5 -98t-31 -140t31 -140t89.5 -98
t139.5 -36q80 0 139 36zM252 749.5q-7 6.5 -7 16.5q0 21 10.5 43t29.5 37t44 15q20 0 37.5 -6t42.5 -18q23 -11 39.5 -17t34.5 -6q15 0 23.5 7t13.5 20q8 21 25 21q10 0 16 -6.5t7 -15.5q0 -35 -24 -65t-60 -30q-20 0 -38 6.5t-44 18.5q-23 11 -39 17t-33 6q-26 0 -39 -32
q-6 -18 -23 -18q-9 0 -16 6.5zM267.5 899.5q-8.5 8.5 -8.5 21.5t8.5 21.5t21.5 8.5h234q13 0 21.5 -8.5t8.5 -21.5t-8.5 -21.5t-21.5 -8.5h-234q-13 0 -21.5 8.5z" />
    <glyph glyph-name="uni022D" unicode="&#x22d;" horiz-adv-x="608" 
d="M169 23q-58 33 -89.5 93.5t-31.5 138.5t31.5 138.5t89.5 93.5t135 33q76 0 134 -33t90 -93.5t32 -138.5t-32 -138.5t-90 -93.5t-134 -33q-77 0 -135 33zM382.5 92q37.5 19 62 60t24.5 104q0 62 -24.5 103t-62 59.5t-78.5 18.5q-42 0 -79.5 -18.5t-61.5 -59.5t-24 -103
q0 -63 24 -104t61.5 -60t79.5 -19q41 0 78.5 19zM150 577.5q-7 6.5 -7 16.5q0 21 10.5 43t29.5 37t44 15q20 0 37.5 -6t42.5 -18q23 -11 39.5 -17t34.5 -6q15 0 23.5 7t13.5 20q8 21 25 21q10 0 16 -6.5t7 -15.5q0 -35 -24 -65t-60 -30q-20 0 -38 6.5t-44 18.5
q-23 11 -39 17t-33 6q-26 0 -39 -32q-6 -18 -23 -18q-9 0 -16 6.5zM165.5 743.5q-8.5 8.5 -8.5 21.5t8.5 21.5t21.5 8.5h234q13 0 21.5 -8.5t8.5 -21.5t-8.5 -21.5t-21.5 -8.5h-234q-13 0 -21.5 8.5z" />
    <glyph glyph-name="uni0230" unicode="&#x230;" horiz-adv-x="812" 
d="M222 36q-79 46 -122 127t-45 186q2 105 45 186t122 127t184 46t183.5 -46t122 -127.5t45.5 -185.5q-2 -104 -45.5 -185.5t-122 -127.5t-183.5 -46t-184 46zM545 111q59 36 90 98t31 140t-31 140t-90 98t-139 36q-81 0 -139.5 -36t-89.5 -98t-31 -140t31 -140t89.5 -98
t139.5 -36q80 0 139 36zM370 762q-15 15 -15 36t15 36t36 15t36 -15t15 -36t-15 -36t-36 -15t-36 15zM267.5 899.5q-8.5 8.5 -8.5 21.5t8.5 21.5t21.5 8.5h234q13 0 21.5 -8.5t8.5 -21.5t-8.5 -21.5t-21.5 -8.5h-234q-13 0 -21.5 8.5z" />
    <glyph glyph-name="uni0231" unicode="&#x231;" horiz-adv-x="608" 
d="M169 23q-58 33 -89.5 93.5t-31.5 138.5t31.5 138.5t89.5 93.5t135 33q76 0 134 -33t90 -93.5t32 -138.5t-32 -138.5t-90 -93.5t-134 -33q-77 0 -135 33zM382.5 92q37.5 19 62 60t24.5 104q0 62 -24.5 103t-62 59.5t-78.5 18.5q-42 0 -79.5 -18.5t-61.5 -59.5t-24 -103
q0 -63 24 -104t61.5 -60t79.5 -19q41 0 78.5 19zM268 590q-15 15 -15 36t15 36t36 15t36 -15t15 -36t-15 -36t-36 -15t-36 15zM165.5 743.5q-8.5 8.5 -8.5 21.5t8.5 21.5t21.5 8.5h234q13 0 21.5 -8.5t8.5 -21.5t-8.5 -21.5t-21.5 -8.5h-234q-13 0 -21.5 8.5z" />
    <glyph glyph-name="uni0232" unicode="&#x232;" horiz-adv-x="639" 
d="M287.5 8q-13.5 13 -13.5 32v255l-239 335q-8 13 -8 27q0 19 12.5 32.5t31.5 13.5q25 0 40 -23l209 -304l209 304q15 23 40 23q19 0 32 -13.5t12 -32.5q0 -14 -8 -27l-240 -335v-255q0 -19 -13 -32t-32 -13t-32.5 13zM181.5 768.5q-8.5 8.5 -8.5 21.5t8.5 21.5t21.5 8.5
h234q13 0 21.5 -8.5t8.5 -21.5t-8.5 -21.5t-21.5 -8.5h-234q-13 0 -21.5 8.5z" />
    <glyph glyph-name="uni0233" unicode="&#x233;" horiz-adv-x="537" 
d="M162.5 -222q-12.5 13 -12.5 31q0 8 3 16l65 167l-188 458q-4 10 -4 19q0 19 13 32.5t32 13.5q14 0 25.5 -8t16.5 -20l154 -382l157 380q13 30 42 30q19 0 32 -13.5t13 -32.5q0 -9 -3 -17l-273 -656q-14 -31 -42 -31q-18 0 -30.5 13zM130.5 596.5q-8.5 8.5 -8.5 21.5
t8.5 21.5t21.5 8.5h234q13 0 21.5 -8.5t8.5 -21.5t-8.5 -21.5t-21.5 -8.5h-234q-13 0 -21.5 8.5z" />
    <glyph glyph-name="uni0237" unicode="&#x237;" horiz-adv-x="254" 
d="M-19 -231q-12 4 -19 13.5t-7 22.5q0 15 11 26.5t27 11.5q6 0 15 -1.5t15 -1.5q31 0 46 11t15 48v569q0 19 13 32.5t32 13.5q20 0 33 -13t13 -33v-571q0 -62 -31.5 -99.5t-99.5 -37.5q-36 0 -63 9z" />
    <glyph glyph-name="uni0259" unicode="&#x259;" horiz-adv-x="566" 
d="M149 23.5q-53 33.5 -80.5 91t-27.5 127.5q0 19 12.5 32t33.5 13h339q-6 69 -49.5 108.5t-118.5 39.5q-43 0 -74.5 -7.5t-61.5 -23.5q-8 -4 -18 -4q-16 0 -28 11t-12 28q0 22 26 37q35 20 80 32t91 12q122 0 189.5 -69.5t67.5 -195.5q0 -70 -26.5 -130.5t-81 -97.5
t-133.5 -37q-75 0 -128 33.5zM346 82.5q33 15.5 55 48.5t25 82h-289q2 -73 43.5 -109.5t98.5 -36.5q34 0 67 15.5z" />
    <glyph glyph-name="uni02BB" unicode="&#x2bb;" horiz-adv-x="400" 
d="M162 590q-14 15 -14 38v33q0 39 19 64.5t49 43.5q8 5 16 5q9 0 15.5 -6.5t6.5 -16.5q0 -13 -12 -21q-21 -13 -32 -25.5t-11 -30.5q22 0 35.5 -13.5t13.5 -34.5t-14.5 -36t-35.5 -15q-22 0 -36 15z" />
    <glyph glyph-name="uni02BC" unicode="&#x2bc;" horiz-adv-x="400" 
d="M206 560q-6 6 -6 16t13 19q16 12 24.5 22t8.5 26q-20 0 -33 12.5t-13 31.5q0 20 13.5 34t33.5 14q21 0 33.5 -14t12.5 -35v-31q0 -31 -14 -52t-44 -43q-6 -6 -16 -6q-7 0 -13 6z" />
    <glyph glyph-name="uni02BE" unicode="&#x2be;" horiz-adv-x="400" 
d="M200 593q23 0 37 14.5t14 37.5t-14 37.5t-37 14.5v42q41 0 68.5 -26.5t27.5 -67.5q0 -40 -27.5 -67t-68.5 -27v42z" />
    <glyph glyph-name="uni02BF" unicode="&#x2bf;" horiz-adv-x="400" 
d="M131.5 578q-27.5 27 -27.5 67q0 41 27.5 67.5t68.5 26.5v-42q-23 0 -37 -14.5t-14 -37.5t14 -37.5t37 -14.5v-42q-41 0 -68.5 27z" />
    <glyph glyph-name="circumflex" unicode="&#x2c6;" horiz-adv-x="409" 
d="M73 575.5q-9 9.5 -8 20.5q0 11 8 19l68 70q9 10 18 15t22 5h38q13 0 22 -5t18 -15l68 -70q8 -8 8 -19q1 -11 -8 -20.5t-22 -9.5q-11 0 -18 7l-87 74l-87 -74q-7 -7 -18 -7q-13 0 -22 9.5z" />
    <glyph glyph-name="caron" unicode="&#x2c7;" horiz-adv-x="391" 
d="M159 572q-9 5 -18 15l-68 70q-8 8 -8 19q-1 11 8 20.5t22 9.5q11 0 18 -7l87 -74l87 74q7 7 18 7q13 0 22 -9.5t8 -20.5q0 -11 -8 -19l-68 -70q-9 -10 -18 -15t-22 -5h-38q-13 0 -22 5z" />
    <glyph glyph-name="uni02C8" unicode="&#x2c8;" horiz-adv-x="198" 
d="M71.5 556.5q-11.5 11.5 -11.5 27.5v153q0 17 11.5 28t27.5 11q17 0 28 -11t11 -28v-153q0 -16 -11 -27.5t-28 -11.5q-16 0 -27.5 11.5z" />
    <glyph glyph-name="uni02C9" unicode="&#x2c9;" horiz-adv-x="400" 
d="M61.5 596.5q-8.5 8.5 -8.5 21.5t8.5 21.5t21.5 8.5h234q13 0 21.5 -8.5t8.5 -21.5t-8.5 -21.5t-21.5 -8.5h-234q-13 0 -21.5 8.5z" />
    <glyph glyph-name="uni02CA" unicode="&#x2ca;" horiz-adv-x="400" 
d="M180.5 574.5q-7.5 7.5 -7.5 19.5q0 9 7 19l51 90q10 19 33 19q17 0 27 -10t10 -27q0 -14 -10 -25l-69 -82q-9 -11 -22 -11q-12 0 -19.5 7.5z" />
    <glyph glyph-name="uni02CB" unicode="&#x2cb;" horiz-adv-x="400" 
d="M178 578l-69 82q-10 11 -10 25q0 17 10.5 27t26.5 10q23 0 33 -19l51 -90q7 -10 7 -19q0 -12 -7.5 -19.5t-19.5 -7.5q-13 0 -22 11z" />
    <glyph glyph-name="uni02CC" unicode="&#x2cc;" horiz-adv-x="198" 
d="M71.5 -144q-11.5 11 -11.5 28v153q0 17 11.5 28t27.5 11q17 0 28 -11t11 -28v-153q0 -17 -11 -28t-28 -11q-16 0 -27.5 11z" />
    <glyph glyph-name="breve" unicode="&#x2d8;" horiz-adv-x="385" 
d="M114.5 597.5q-37.5 21.5 -54.5 59.5q-3 6 -3 14q0 13 8.5 22t22.5 9q19 0 28 -19q11 -23 33 -36t51 -13t51 13t33 36q9 19 28 19q14 0 22.5 -9t8.5 -22q0 -8 -3 -14q-17 -38 -54.5 -59.5t-85.5 -21.5t-85.5 21.5z" />
    <glyph glyph-name="dotaccent" unicode="&#x2d9;" horiz-adv-x="228" 
d="M164 590q-15 15 -15 36t15 36t36 15t36 -15t15 -36t-15 -36t-36 -15t-36 15z" />
    <glyph glyph-name="ring" unicode="&#x2da;" horiz-adv-x="270" 
d="M133.5 578.5q-27.5 27.5 -27.5 66.5t27.5 66.5t66.5 27.5t66.5 -27.5t27.5 -66.5t-27.5 -66.5t-66.5 -27.5t-66.5 27.5zM234.5 610.5q14.5 14.5 14.5 34.5t-14.5 34.5t-34.5 14.5t-34.5 -14.5t-14.5 -34.5t14.5 -34.5t34.5 -14.5t34.5 14.5z" />
    <glyph glyph-name="ogonek" unicode="&#x2db;" horiz-adv-x="351" 
d="M42.5 -180q-27.5 23 -27.5 61q0 44 28.5 74.5t75.5 54.5h81q-112 -52 -112 -110q0 -47 51 -47q15 0 35 6q6 2 9 2q10 0 16 -6t6 -16t-11 -18q-34 -24 -86 -24q-38 0 -65.5 23z" />
    <glyph glyph-name="tilde" unicode="&#x2dc;" horiz-adv-x="432" 
d="M46 577.5q-7 6.5 -7 16.5q0 21 10.5 43t29.5 37t44 15q20 0 37.5 -6t42.5 -18q23 -11 39.5 -17t34.5 -6q15 0 23.5 7t13.5 20q8 21 25 21q10 0 16 -6.5t7 -15.5q0 -35 -24 -65t-60 -30q-20 0 -38 6.5t-44 18.5q-23 11 -39 17t-33 6q-26 0 -39 -32q-6 -18 -23 -18
q-9 0 -16 6.5z" />
    <glyph glyph-name="hungarumlaut" unicode="&#x2dd;" horiz-adv-x="399" 
d="M122 574q-8 7 -8 18q0 5 1 8l27 90q4 15 15 23t23 8q14 0 24.5 -9t10.5 -24q0 -12 -7 -25l-41 -79q-9 -17 -26 -17q-11 0 -19 7zM238 574q-8 7 -8 18q0 5 1 8l27 90q4 15 15 23t23 8q14 0 24.5 -9t10.5 -24q0 -12 -7 -25l-41 -79q-9 -17 -26 -17q-11 0 -19 7z" />
    <glyph glyph-name="gravecomb" unicode="&#x300;" 
d="M-222 578l-69 82q-10 11 -10 25q0 17 10 27t27 10q23 0 33 -19l51 -90q7 -10 7 -19q0 -12 -7.5 -19.5t-19.5 -7.5q-13 0 -22 11z" />
    <glyph glyph-name="acutecomb" unicode="&#x301;" 
d="M-219.5 574.5q-7.5 7.5 -7.5 19.5q0 9 7 19l51 90q10 19 33 19q16 0 26.5 -10t10.5 -27q0 -14 -10 -25l-69 -82q-9 -11 -22 -11q-12 0 -19.5 7.5z" />
    <glyph glyph-name="uni0302" unicode="&#x302;" 
d="M-327 575.5q-9 9.5 -8 20.5q0 11 8 19l68 70q9 10 18 15t22 5h38q13 0 22 -5t18 -15l68 -70q8 -8 8 -19q1 -11 -8 -20.5t-22 -9.5q-11 0 -18 7l-87 74l-87 -74q-7 -7 -18 -7q-13 0 -22 9.5z" />
    <glyph glyph-name="tildecomb" unicode="&#x303;" 
d="M-354 577.5q-7 6.5 -7 16.5q0 21 10.5 43t29.5 37t44 15q20 0 37.5 -6t42.5 -18q23 -11 39.5 -17t34.5 -6q15 0 23.5 7t13.5 20q8 21 25 21q10 0 16 -6.5t7 -15.5q0 -35 -24 -65t-60 -30q-20 0 -38 6.5t-44 18.5q-23 11 -39 17t-33 6q-26 0 -39 -32q-6 -18 -23 -18
q-9 0 -16 6.5z" />
    <glyph glyph-name="uni0304" unicode="&#x304;" 
d="M-338.5 596.5q-8.5 8.5 -8.5 21.5t8.5 21.5t21.5 8.5h234q13 0 21.5 -8.5t8.5 -21.5t-8.5 -21.5t-21.5 -8.5h-234q-13 0 -21.5 8.5z" />
    <glyph glyph-name="uni0306" unicode="&#x306;" 
d="M-285.5 597.5q-37.5 21.5 -54.5 59.5q-3 6 -3 14q0 13 8.5 22t22.5 9q19 0 28 -19q11 -23 33 -36t51 -13t51 13t33 36q9 19 28 19q14 0 22.5 -9t8.5 -22q0 -8 -3 -14q-17 -38 -54.5 -59.5t-85.5 -21.5t-85.5 21.5z" />
    <glyph glyph-name="uni0307" unicode="&#x307;" 
d="M-236 590q-15 15 -15 36t15 36t36 15t36 -15t15 -36t-15 -36t-36 -15t-36 15z" />
    <glyph glyph-name="uni0308" unicode="&#x308;" 
d="M-320 590q-15 15 -15 36t15 36t36 15t36 -15t15 -36t-15 -36t-36 -15t-36 15zM-152 590q-15 15 -15 36t15 36t36 15t36 -15t15 -36t-15 -36t-36 -15t-36 15z" />
    <glyph glyph-name="hookabovecomb" unicode="&#x309;" 
d="M-223 572q-7 6 -7 18q0 17 10.5 29t28.5 25q15 12 21 18t6 14q0 19 -31 19q-25 0 -44 -7.5t-23 -7.5q-9 0 -15 6.5t-6 14.5q0 14 11 21q16 10 36.5 15t40.5 5q40 0 61.5 -16.5t21.5 -48.5q0 -22 -9.5 -35t-29.5 -28q-12 -8 -19.5 -15.5t-11.5 -17.5q-6 -15 -25 -15
q-9 0 -16 6z" />
    <glyph glyph-name="uni030A" unicode="&#x30a;" 
d="M-266.5 578.5q-27.5 27.5 -27.5 66.5t27.5 66.5t66.5 27.5t66.5 -27.5t27.5 -66.5t-27.5 -66.5t-66.5 -27.5t-66.5 27.5zM-165.5 610.5q14.5 14.5 14.5 34.5t-14.5 34.5t-34.5 14.5t-34.5 -14.5t-14.5 -34.5t14.5 -34.5t34.5 -14.5t34.5 14.5z" />
    <glyph glyph-name="uni030B" unicode="&#x30b;" 
d="M-278 574q-8 7 -8 18q0 5 1 8l27 90q4 15 15 23t23 8q14 0 24.5 -9t10.5 -24q0 -12 -7 -25l-41 -79q-9 -17 -26 -17q-11 0 -19 7zM-162 574q-8 7 -8 18q0 5 1 8l27 90q4 15 15 23t23 8q14 0 24.5 -9t10.5 -24q0 -12 -7 -25l-41 -79q-9 -17 -26 -17q-11 0 -19 7z" />
    <glyph glyph-name="uni030C" unicode="&#x30c;" 
d="M-241 572q-9 5 -18 15l-68 70q-8 8 -8 19q-1 11 8 20.5t22 9.5q11 0 18 -7l87 -74l87 74q7 7 18 7q13 0 22 -9.5t8 -20.5q0 -11 -8 -19l-68 -70q-9 -10 -18 -15t-22 -5h-38q-13 0 -22 5z" />
    <glyph glyph-name="uni030F" unicode="&#x30f;" 
d="M-296.5 574.5q-7.5 7.5 -7.5 19.5q0 9 7 19l51 90q10 19 33 19q16 0 26.5 -10t10.5 -27q0 -14 -10 -25l-69 -82q-9 -11 -22 -11q-12 0 -19.5 7.5zM-142.5 574.5q-7.5 7.5 -7.5 19.5q0 9 7 19l51 90q10 19 33 19q16 0 26.5 -10t10.5 -27q0 -14 -10 -25l-69 -82
q-9 -11 -22 -11q-12 0 -19.5 7.5z" />
    <glyph glyph-name="uni0311" unicode="&#x311;" 
d="M-334.5 576q-8.5 9 -8.5 22q0 8 3 14q19 37 56 59t84 22t84 -22t56 -59q3 -6 3 -14q0 -13 -8.5 -22t-22.5 -9q-19 0 -28 19q-11 23 -33 36t-51 13t-51 -13t-33 -36q-9 -19 -28 -19q-14 0 -22.5 9z" />
    <glyph glyph-name="uni0312" unicode="&#x312;" 
d="M-238 590q-14 15 -14 38v33q0 39 19 64.5t49 43.5q8 5 16 5q9 0 15.5 -6.5t6.5 -16.5q0 -13 -12 -21q-21 -13 -32 -25.5t-11 -30.5q22 0 35.5 -13.5t13.5 -34.5t-14.5 -36t-35.5 -15q-22 0 -36 15z" />
    <glyph glyph-name="uni031B" unicode="&#x31b;" 
d="M-200 446v64h49q38 0 57 18.5t19 52.5q0 14 -4 30q-3 12 -3 21q0 14 9.5 23.5t23.5 9.5q23 0 36.5 -26.5t13.5 -73.5q0 -54 -35.5 -90.5t-106.5 -36.5q-23 0 -59 8z" />
    <glyph glyph-name="dotbelowcomb" unicode="&#x323;" 
d="M-236 -151q-15 15 -15 36t15 36t36 15t36 -15t15 -36t-15 -36t-36 -15t-36 15z" />
    <glyph glyph-name="uni0324" unicode="&#x324;" 
d="M-320 -151q-15 15 -15 36t15 36t36 15t36 -15t15 -36t-15 -36t-36 -15t-36 15zM-152 -151q-15 15 -15 36t15 36t36 15t36 -15t15 -36t-15 -36t-36 -15t-36 15z" />
    <glyph glyph-name="uni0326" unicode="&#x326;" 
d="M-245.5 -256.5q-6.5 6.5 -6.5 16.5q0 13 12 21q21 13 32 25.5t11 30.5q-22 0 -35.5 13.5t-13.5 34.5t14.5 36t35.5 15q22 0 36 -15t14 -38v-33q0 -39 -19 -64.5t-49 -43.5q-8 -5 -16 -5q-9 0 -15.5 6.5z" />
    <glyph glyph-name="uni0327" unicode="&#x327;" 
d="M-303 -195q-4 3 -7.5 7.5t-3.5 9.5q0 8 5 14t14 6q4 0 10 -3q31 -17 59 -17q57 0 57 46q0 15 -10 23t-26 8q-22 0 -44 -11q-6 -3 -10 -3q-7 0 -12.5 4.5t-5.5 11.5q0 8 4 14l64 102h42l-46 -80q16 4 34 4q34 0 55.5 -19.5t21.5 -50.5q0 -46 -28.5 -69t-82.5 -23
q-48 0 -90 26z" />
    <glyph glyph-name="uni0328" unicode="&#x328;" 
d="M-357.5 -180q-27.5 23 -27.5 61q0 44 28.5 74.5t75.5 54.5h81q-112 -52 -112 -110q0 -47 51 -47q15 0 35 6q6 2 9 2q10 0 16 -6t6 -16t-11 -18q-34 -24 -86 -24q-38 0 -65.5 23z" />
    <glyph glyph-name="uni032E" unicode="&#x32e;" 
d="M-284 -160q-37 22 -56 59q-3 6 -3 14q0 13 8.5 22t22.5 9q19 0 28 -19q11 -23 33 -36t51 -13t51 13t33 36q9 19 28 19q14 0 22.5 -9t8.5 -22q0 -8 -3 -14q-19 -37 -56 -59t-84 -22t-84 22z" />
    <glyph glyph-name="uni0331" unicode="&#x331;" 
d="M-338.5 -128.5q-8.5 8.5 -8.5 21.5t8.5 21.5t21.5 8.5h234q13 0 21.5 -8.5t8.5 -21.5t-8.5 -21.5t-21.5 -8.5h-234q-13 0 -21.5 8.5z" />
    <glyph glyph-name="uni03A9" unicode="&#x3a9;" horiz-adv-x="790" 
d="M65.5 11.5q-11.5 11.5 -11.5 27.5q0 17 11.5 28t27.5 11h101q-125 103 -125 291q0 83 40 161.5t114.5 128t171.5 49.5t171.5 -49.5t114.5 -128t40 -161.5q0 -188 -125 -291h101q17 0 28 -11t11 -28q0 -16 -11 -27.5t-28 -11.5h-185q-19 0 -33 13.5t-14 32.5q0 12 6.5 23
t16.5 17q151 87 151 272q0 69 -29.5 128.5t-85 95t-129.5 35.5t-129.5 -35.5t-85 -95t-29.5 -128.5q0 -185 151 -272q10 -6 16.5 -17t6.5 -23q0 -19 -14 -32.5t-33 -13.5h-185q-16 0 -27.5 11.5z" />
    <glyph glyph-name="pi" unicode="&#x3c0;" horiz-adv-x="634" 
d="M121 7.5q-13 12.5 -13 30.5q0 9 5 21q31 82 41 165t14 207h-22q-46 0 -76 -9q-12 -4 -17 -4q-14 0 -25.5 11t-11.5 25q0 10 6 19t15 14q46 23 109 23h430q17 0 28.5 -11.5t11.5 -28.5q0 -16 -11.5 -27.5t-28.5 -11.5h-60v-393q0 -18 -12.5 -30.5t-30.5 -12.5t-30.5 12.5
t-12.5 30.5v393h-176q-6 -212 -60 -404q-4 -14 -15.5 -23t-26.5 -9q-18 0 -31 12.5z" />
    <glyph glyph-name="uni05B0" unicode="&#x5b0;" 
d="M241.5 -136q-9.5 9 -9.5 24t9.5 24.5t24.5 9.5t24 -9.5t9 -24.5t-9 -24t-24 -9t-24.5 9zM241.5 -237q-9.5 9 -9.5 24t9.5 24.5t24.5 9.5t24 -9.5t9 -24.5t-9 -24t-24 -9t-24.5 9z" />
    <glyph glyph-name="uni05B1" unicode="&#x5b1;" 
d="M123.5 -136q-9.5 9 -9.5 24t9.5 24.5t24.5 9.5t24 -9.5t9 -24.5t-9 -24t-24 -9t-24.5 9zM241.5 -136q-9.5 9 -9.5 24t9.5 24.5t24.5 9.5t24 -9.5t9 -24.5t-9 -24t-24 -9t-24.5 9zM356.5 -136q-9.5 9 -9.5 24t9.5 24.5t24.5 9.5t24 -9.5t9 -24.5t-9 -24t-24 -9t-24.5 9z
M182 -229q-9 9 -9 24t9 24.5t24 9.5t24 -9.5t9 -24.5t-9 -24t-24 -9t-24 9zM356.5 -237q-9.5 9 -9.5 24t9.5 24.5t24.5 9.5t24 -9.5t9 -24.5t-9 -24t-24 -9t-24.5 9z" />
    <glyph glyph-name="uni05B2" unicode="&#x5b2;" 
d="M361.5 -136q-9.5 9 -9.5 24t9.5 24.5t24.5 9.5t24 -9.5t9 -24.5t-9 -24t-24 -9t-24.5 9zM113.5 -133.5q-4.5 5.5 -4.5 21.5q0 17 4.5 22.5t19.5 5.5h141q15 0 18.5 -5.5t3.5 -22.5t-3.5 -22t-18.5 -5h-141q-15 0 -19.5 5.5zM361.5 -237q-9.5 9 -9.5 24t9.5 24.5t24.5 9.5
t24 -9.5t9 -24.5t-9 -24t-24 -9t-24.5 9z" />
    <glyph glyph-name="uni05B3" unicode="&#x5b3;" 
d="M356.5 -136q-9.5 9 -9.5 24t9.5 24.5t24.5 9.5t24 -9.5t9 -24.5t-9 -24t-24 -9t-24.5 9zM297.5 -89.5q3.5 -5.5 3.5 -22.5t-3.5 -22t-18.5 -5h-47q6 -25 10.5 -59t4.5 -46q0 -20 -33 -20t-33 20q0 12 4.5 46t10.5 59h-48q-15 0 -19.5 5.5t-4.5 21.5q0 17 4.5 22.5
t19.5 5.5h131q15 0 18.5 -5.5zM405 -188.5q9 -9.5 9 -24.5t-9 -24t-24 -9t-24.5 9t-9.5 24t9.5 24.5t24.5 9.5t24 -9.5z" />
    <glyph glyph-name="uni05B4" unicode="&#x5b4;" 
d="M238 -138.5q-10 9.5 -10 25.5t10 25.5t26 9.5q15 0 24.5 -9.5t9.5 -25.5t-9.5 -25.5t-24.5 -9.5q-16 0 -26 9.5z" />
    <glyph glyph-name="uni05B5" unicode="&#x5b5;" 
d="M183.5 -136q-9.5 9 -9.5 24t9.5 24.5t24.5 9.5t24 -9.5t9 -24.5t-9 -24t-24 -9t-24.5 9zM296.5 -136q-9.5 9 -9.5 24t9.5 24.5t24.5 9.5t24 -9.5t9 -24.5t-9 -24t-24 -9t-24.5 9z" />
    <glyph glyph-name="uni05B6" unicode="&#x5b6;" 
d="M183.5 -136q-9.5 9 -9.5 24t9.5 24.5t24.5 9.5t24 -9.5t9 -24.5t-9 -24t-24 -9t-24.5 9zM296.5 -136q-9.5 9 -9.5 24t9.5 24.5t24.5 9.5t24 -9.5t9 -24.5t-9 -24t-24 -9t-24.5 9zM240 -229q-9 9 -9 24t9 24.5t24 9.5t24 -9.5t9 -24.5t-9 -24t-24 -9t-24 9z" />
    <glyph glyph-name="uni05B7" unicode="&#x5b7;" 
d="M173.5 -133.5q-4.5 5.5 -4.5 21.5q0 17 4.5 22.5t19.5 5.5h141q15 0 18.5 -5.5t3.5 -22.5t-3.5 -22t-18.5 -5h-141q-15 0 -19.5 5.5z" />
    <glyph glyph-name="uni05B8" unicode="&#x5b8;" 
d="M348.5 -89.5q3.5 -5.5 3.5 -22.5t-3.5 -22t-18.5 -5h-46q6 -24 10 -54t4 -41q0 -20 -33 -20t-33 20q0 11 4 41t10 54h-47q-15 0 -19.5 5.5t-4.5 21.5q0 17 4.5 22.5t19.5 5.5h131q15 0 18.5 -5.5z" />
    <glyph glyph-name="uni05B9" unicode="&#x5b9;" 
d="M223.5 686q-10.5 10 -10.5 27t10.5 27t27.5 10q16 0 26 -10.5t10 -26.5t-10 -26.5t-26 -10.5q-17 0 -27.5 10z" />
    <glyph glyph-name="uni05BB" unicode="&#x5bb;" 
d="M235.5 -133q-9.5 9 -9.5 24t9.5 24.5t24.5 9.5t24 -9.5t9 -24.5t-9 -24t-24 -9t-24.5 9zM305.5 -205q-9.5 9 -9.5 24t9.5 24.5t24.5 9.5t24 -9.5t9 -24.5t-9 -24t-24 -9t-24.5 9zM375 -277q-9 9 -9 24t9 24.5t24 9.5t24 -9.5t9 -24.5t-9 -24t-24 -9t-24 9z" />
    <glyph glyph-name="uni05BC" unicode="&#x5bc;" 
d="M223.5 273q-10.5 10 -10.5 27t10.5 27t27.5 10q16 0 26 -10.5t10 -26.5t-10 -26.5t-26 -10.5q-17 0 -27.5 10z" />
    <glyph glyph-name="uni05BE" unicode="&#x5be;" horiz-adv-x="326" 
d="M56 522q-12 12 -12 28q0 17 12 28.5t28 11.5h157q17 0 29 -11.5t12 -28.5t-12 -28.5t-29 -11.5h-157q-16 0 -28 12z" />
    <glyph glyph-name="uni05C1" unicode="&#x5c1;" 
d="M223.5 686q-10.5 10 -10.5 27t10.5 27t27.5 10q16 0 26 -10.5t10 -26.5t-10 -26.5t-26 -10.5q-17 0 -27.5 10z" />
    <glyph glyph-name="uni05C2" unicode="&#x5c2;" 
d="M223.5 686q-10.5 10 -10.5 27t10.5 27t27.5 10q16 0 26 -10.5t10 -26.5t-10 -26.5t-26 -10.5q-17 0 -27.5 10z" />
    <glyph glyph-name="uni05D0" unicode="&#x5d0;" horiz-adv-x="658" 
d="M601 42q0 -22 -17 -36q-10 -9 -25 -9q-23 0 -38 17l-277 321l-95 -309q-4 -15 -15.5 -22t-26.5 -7q-21 0 -33 12t-12 30q0 10 3 17l112 356l-94 109q-10 11 -10 29q0 20 14 33q14 11 30 11q21 0 35 -16l240 -277l124 267q11 25 39 25q10 0 22 -5q24 -12 24 -37
q0 -12 -6 -24l-142 -298l138 -159q10 -11 10 -28z" />
    <glyph glyph-name="uni05D1" unicode="&#x5d1;" horiz-adv-x="641" 
d="M602 68.5q12 -11.5 12 -28.5t-12 -28.5t-29 -11.5h-480q-16 0 -28 12t-12 28q0 17 12 28.5t28 11.5h338v297q0 54 -13 83.5t-42.5 42.5t-82.5 13q-39 0 -79 -5.5t-109 -18.5q-17 -3 -31.5 6.5t-17.5 26.5q-2 16 8.5 29t27.5 17q107 25 205 25q83 0 132 -22.5t71 -70
t22 -126.5v-297h51q17 0 29 -11.5z" />
    <glyph glyph-name="uni05D2" unicode="&#x5d2;" horiz-adv-x="407" 
d="M247.5 585.5q30.5 -9.5 52 -44t21.5 -104.5v-396q0 -19 -13.5 -32.5t-32.5 -13.5t-32 13.5t-13 32.5v66q-35 -46 -74.5 -78t-85.5 -32q-21 0 -35.5 11.5t-14.5 32.5q0 16 10.5 28t27.5 14q56 6 98 35t74 80v246q0 44 -14 59t-45 15q-11 0 -28.5 -4t-31.5 -10
q-6 -2 -11 -2q-12 0 -22.5 10t-10.5 27q0 25 22 36q16 8 41 14t45 6q42 0 72.5 -9.5z" />
    <glyph glyph-name="uni05D3" unicode="&#x5d3;" horiz-adv-x="587" 
d="M529 578.5q12 -11.5 12 -28.5t-12 -28.5t-29 -11.5h-45q-36 -53 -36 -165v-305q0 -19 -13.5 -32t-32.5 -13t-32 13t-13 32v309q0 109 43 161h-303q-16 0 -28 12t-12 28q0 17 12 28.5t28 11.5h432q17 0 29 -11.5z" />
    <glyph glyph-name="uni05D4" unicode="&#x5d4;" horiz-adv-x="660" 
d="M502.5 8.5q-13.5 13.5 -13.5 32.5v336q0 53 -16 82.5t-52 42t-100 12.5q-88 0 -206 -22q-17 -3 -31.5 6.5t-17.5 26.5q-2 16 8.5 29t27.5 17q54 11 114 17t109 6q93 0 148.5 -22t81 -69.5t25.5 -125.5v-336q0 -19 -13 -32.5t-32 -13.5t-32.5 13.5zM107.5 8.5
q-13.5 13.5 -13.5 32.5v269q0 19 13 32.5t32 13.5t32.5 -13.5t13.5 -32.5v-269q0 -19 -13 -32.5t-32 -13.5t-32.5 13.5z" />
    <glyph glyph-name="uni05D5" unicode="&#x5d5;" horiz-adv-x="267" 
d="M101.5 8.5q-13.5 13.5 -13.5 32.5v507q0 19 13 32.5t32 13.5t32.5 -13.5t13.5 -32.5v-507q0 -19 -13 -32.5t-32 -13.5t-32.5 13.5z" />
    <glyph glyph-name="uni05D6" unicode="&#x5d6;" horiz-adv-x="416" 
d="M378 578.5q12 -11.5 12 -28.5t-12 -28.5t-29 -11.5h-71q-36 -53 -36 -165v-305q0 -19 -13.5 -32t-32.5 -13t-32 13t-13 32v309q0 109 43 161h-107q-16 0 -28 12t-12 28q0 17 12 28.5t28 11.5h262q17 0 29 -11.5z" />
    <glyph glyph-name="uni05D7" unicode="&#x5d7;" horiz-adv-x="683" 
d="M547 540.5q52 -49.5 52 -163.5v-336q0 -19 -13 -32.5t-32 -13.5t-32.5 13.5t-13.5 32.5v336q0 76 -28 104.5t-79 28.5h-166q-19 -32 -25.5 -73t-6.5 -97v-299q0 -19 -13 -32.5t-32 -13.5t-32.5 13.5t-13.5 32.5v304q0 45 11 90.5t32 74.5h-45q-18 0 -30.5 11.5
t-12.5 28.5t12.5 28.5t30.5 11.5h291q94 0 146 -49.5z" />
    <glyph glyph-name="uni05D8" unicode="&#x5d8;" horiz-adv-x="696" 
d="M153 60.5q-76 65.5 -76 183.5v306q0 19 13 32.5t32 13.5t32.5 -13.5t13.5 -32.5v-306q0 -84 51 -126.5t142 -42.5q82 0 128.5 42.5t46.5 126.5v197q0 40 -16 57t-52 17q-28 0 -54.5 -21t-42.5 -63q-5 -12 -14.5 -19.5t-22.5 -7.5q-18 0 -29 12t-11 30q0 4 2 14
q10 42 38.5 72.5t65 46.5t71.5 16q70 0 113 -32.5t43 -127.5v-191q0 -120 -68.5 -184.5t-197.5 -64.5q-132 0 -208 65.5z" />
    <glyph glyph-name="uni05D9" unicode="&#x5d9;" horiz-adv-x="255" 
d="M95.5 250.5q-13.5 13.5 -13.5 32.5v265q0 19 13 32.5t32 13.5t32.5 -13.5t13.5 -32.5v-265q0 -19 -13 -32.5t-32 -13.5t-32.5 13.5z" />
    <glyph glyph-name="uni05DA" unicode="&#x5da;" horiz-adv-x="529" 
d="M374.5 -179.5q-13.5 13.5 -13.5 32.5v524q0 76 -28 104.5t-79 28.5h-177q-18 0 -30.5 11.5t-12.5 28.5t12.5 28.5t30.5 11.5h177q94 0 146 -49.5t52 -163.5v-524q0 -19 -13 -32.5t-32 -13.5t-32.5 13.5z" />
    <glyph glyph-name="uni05DB" unicode="&#x5db;" horiz-adv-x="572" 
d="M450 519q61 -71 61 -224t-61 -224t-187 -71h-173q-18 0 -30.5 11.5t-12.5 28.5t12.5 28.5t30.5 11.5h173q78 0 117.5 52t39.5 163t-39.5 163t-117.5 52h-173q-18 0 -30.5 11.5t-12.5 28.5t12.5 28.5t30.5 11.5h173q126 0 187 -71z" />
    <glyph glyph-name="uni05DC" unicode="&#x5dc;" horiz-adv-x="540" 
d="M175.5 20q-6.5 11 -6.5 23q0 10 5 22l220 445h-304q-24 0 -34.5 10t-10.5 33v135q0 19 13 32.5t30 13.5t30.5 -13.5t13.5 -32.5v-98h298q25 0 41.5 -17.5t16.5 -44.5q0 -21 -10 -41l-225 -464q-6 -12 -16.5 -18.5t-23.5 -6.5q-11 0 -20 5q-11 6 -17.5 17z" />
    <glyph glyph-name="uni05DD" unicode="&#x5dd;" horiz-adv-x="690" 
d="M558 540.5q52 -49.5 52 -163.5v-337q0 -17 -12 -28.5t-29 -11.5h-429q-16 0 -28 12t-12 28v285q0 48 11.5 103t34.5 82h-42q-18 0 -30.5 11.5t-12.5 28.5t12.5 28.5t30.5 11.5h308q94 0 146 -49.5zM519 377q0 76 -28 104.5t-79 28.5h-183q-38 -53 -38 -185v-245h328v297z
" />
    <glyph glyph-name="uni05DE" unicode="&#x5de;" horiz-adv-x="694" 
d="M101 8q-13 13 -13 32v509q0 19 13 32.5t32 13.5t32.5 -13.5t13.5 -32.5v-46q39 37 105 65t131 28q98 0 148.5 -60t50.5 -177v-319q0 -19 -10.5 -29.5t-30.5 -10.5h-225q-16 0 -28 12t-12 28q0 17 12 28.5t28 11.5h175v269q0 64 -11.5 99.5t-38 50.5t-74.5 15
q-56 0 -120 -30.5t-100 -68.5v-375q0 -19 -13.5 -32t-32.5 -13t-32 13z" />
    </font>
</defs>
</svg>
